Риддик / Riddick (Дэвид Туи / David Neil Twohy) [2013, США, Фантастика, боевик, триллер, WEBRip] Dub [Звук с TS]

Ответить на тему
 
Автор Сообщение

user ®

Стаж: 7 лет 7 месяцев

Сообщений: 20008

Пост Пост: #1 от 02-Ноя-2013 23:20

[Цитировать]

Риддик / Riddick- Страна: США
Студия: One Race Productions, Radar Pictures Inc.
Жанр: Фантастика, боевик, триллер
Год выпуска: 2013
Продолжительность: 01:54:41
Перевод: Профессиональный (дублированный) [Звук с TS]
Оригинальная аудиодорожка: английская
Примичание: Присутствуют неотключаемые арабские субтитры-Режиссер: Дэвид Туи / David Neil Twohy-В ролях: Вин Дизель, Карл Урбан, Кэти Сакхофф, Антуанетта Никпрелаж, Рауль Трухильо, Букем Вудбайн, Хорди Молья, Ной Дэнби, Нолан Фанк, Дэйв Батиста-Описание: Риддик возвращается, бесчисленные попытки его убийства только будоражат в нём кровь и он преданный своими, и брошенный умирать на пустынной планете, сражается с людьми пришедшими убить его, как и всегда по найму каких то лиц, и хищниками живущими на планете, где он скрывается,борьба за жизнь становится страшнее, сильнее и опаснее, ведь Риддик стал ещё круче себя прежнего. Прибыв на планету и открывшие на него охоту галактические наемники-убийцы, оказываются всего навсего пешками в грандиозном плане отмщения нашего непобедимого героя. С врагами, возникающими на его пути тогда, когда это нужно самому Риддику, он начинает поход во имя мести, чтобы в конечном счете вернуться на родную Фурию и спасти ее от уничтожения. Это ещё не конец,а только начало и он отомстит...-Сэмпл: http://multi-up.com/917720-Качество видео: WEBRip
Формат видео: AVI
Видео: 720x400 (1.80:1), 23.976 fps, XviD build 50 ~1580 kbps avg, 0.23 bit/pixel
Аудио: 48 kHz, MPEG Layer 3, 2 ch, ~128.00 kbps avg-

MediaInfo

General
Complete name : E:\Новинки\Riddik.2013.Dt.WEBRip.1400M.avi
Format : AVI
Format/Info : Audio Video Interleave
File size : 1.36 GiB
Duration : 1h 53mn
Overall bit rate : 1 718 Kbps
Writing application : VirtualDubMod 1.5.10.3 | www.virtualdub-fr.org || (build 2550/release)
Writing library : VirtualDubMod build 2550/release
Video
ID : 0
Format : MPEG-4 Visual
Format profile : Advanced Simple@L5
Format settings, BVOP : 1
Format settings, QPel : No
Format settings, GMC : No warppoints
Format settings, Matrix : Custom
Codec ID : XVID
Codec ID/Hint : XviD
Duration : 1h 53mn
Bit rate : 1 581 Kbps
Width : 720 pixels
Height : 400 pixels
Display aspect ratio : 16:9
Frame rate : 23.976 fps
Color space : YUV
Chroma subsampling : 4:2:0
Bit depth : 8 bits
Scan type : Progressive
Compression mode : Lossy
Bits/(Pixel*Frame) : 0.229
Stream size : 1.26 GiB (92%)
Writing library : XviD 1.2.1 (UTC 2008-12-04)
Audio
ID : 1
Format : MPEG Audio
Format version : Version 1
Format profile : Layer 3
Codec ID : 55
Codec ID/Hint : MP3
Duration : 1h 53mn
Bit rate mode : Constant
Bit rate : 128 Kbps
Channel count : 2 channels
Sampling rate : 48.0 KHz
Compression mode : Lossy
Stream size : 104 MiB (7%)
Alignment : Aligned on interleaves
Interleave, duration : 42 ms (1.00 video frame)
Interleave, preload duration : 504 ms
Writing library : LAME3.99r
Encoding settings : -m s -V 4 -q 2 -lowpass 17 -b 128

Скриншот с названием фильма

Скриншоты

-
Скачать

Скачать торрент!

Как скачивать? · Что такое торрент? · Рейтинг и ограничения

Сайт не распространяет и не хранит электронные версии произведений, а лишь предоставляет доступ к создаваемому пользователями каталогу ссылок на торрент-файлы, которые содержат только списки хеш-сумм

[Профиль] [ЛС]
Показать сообщения:    
Ответить на тему

Текущее время: Сегодня 08:06

Часовой пояс: GMT + 4



Вы не можете начинать темы
Вы не можете отвечать на сообщения
Вы не можете редактировать свои сообщения
Вы не можете удалять свои сообщения
Вы не можете голосовать в опросах
Вы не можете прикреплять файлы к сообщениям
Вы не можете скачивать файлы