Король улиц / The King of the Streets (Юэ Сун / Yue Song) [2012, Китай, Боевые искусства, боевик, DVDRip] VO

Ответить на тему
 
Автор Сообщение

user ®

Стаж: 11 лет

Сообщений: 15151

Пост Пост: #1 от 02-Ноя-2013 20:10

[Цитировать]

Король улиц / The King of the Streets
Страна: Китай
Жанр: Боевые искусства, боевик
Год выпуска: 2012
Продолжительность: 01:27:35
Перевод: Одноголосый закадровый (Виктор Береговых)
Cубтитры: нет
Режиссер: Юэ Сун / Yue Song
В ролях: Юэ Сун, Ли Юй-Фей, Кан Эн, Ян Цзин Пин, Ли Чан Хай
Описание: Когда Фен был подростком, он пытался вытащить из банды своего друга, но в процессе разборок случайно убил одного из нападавших на него и угодил в тюрьму на восемь лет. За решеткой он понял, что насилием ничего не добьешься, и вышел с твердым намерением начать новую, спокойную жизнь. Он даже устраивается добровольцем помогать в детский приют, но проблемы сами находят его – на землю, на которой стоит приют, заглядываются местные бандиты, и защитить сирот может только Фен.
Сэмпл: http://multi-up.com/919313
Качество видео: DVDRip
Формат видео: AVI
Видео: XviD, 720x416 (16:9), 29.970 fps, 2036 kbps avg, 0.227 bit/pixel
Аудио: AC3, 48.0 KHz, 192 Kbps, 2 channels

Доп. информация

Перевод: Игорь Калинин
Озвучивание: Виктор Береговых

MediaInfo

General
Complete name : C:\Король улиц\The King of the Streets.avi
Format : AVI
Format/Info : Audio Video Interleave
File size : 1.37 GiB
Duration : 1h 27mn
Overall bit rate : 2 235 Kbps
Writing application : VirtualDubMod 1.5.4.1 (build 2178/release)
Writing library : VirtualDubMod build 2178/release
Video
ID : 0
Format : MPEG-4 Visual
Format profile : Simple@L3
Format settings, BVOP : No
Format settings, QPel : No
Format settings, GMC : No warppoints
Format settings, Matrix : Custom
Codec ID : XVID
Codec ID/Hint : XviD
Duration : 1h 27mn
Bit rate : 2 036 Kbps
Width : 720 pixels
Height : 416 pixels
Display aspect ratio : 16:9
Frame rate : 29.970 fps
Resolution : 24 bits
Colorimetry : 4:2:0
Scan type : Progressive
Bits/(Pixel*Frame) : 0.227
Stream size : 1.25 GiB (91%)
Writing library : XviD 1.0.1 (UTC 2004-06-05)
Audio
ID : 1
Format : AC-3
Format/Info : Audio Coding 3
Codec ID : 2000
Duration : 1h 27mn
Bit rate mode : Constant
Bit rate : 192 Kbps
Channel(s) : 2 channels
Channel positions : L R
Sampling rate : 48.0 KHz
Stream size : 120 MiB (9%)
Alignment : Split accross interleaves
Interleave, duration : 96 ms (2.88 video frames)
Interleave, preload duration : 96 ms
Language : Russian

Скриншот c названием фильма

Скриншоты

Скачать

Скачать торрент! Король улиц / The King of the Streets (Юэ Сун / Yue Song) [2012, Китай, Боевые искусства, боевик, DVDRip] VO

Как скачивать? · Что такое торрент? · Рейтинг и ограничения

Сайт не распространяет и не хранит электронные версии произведений, а лишь предоставляет доступ к создаваемому пользователями каталогу ссылок на торрент-файлы, которые содержат только списки хеш-сумм

[Профиль] [ЛС]
Показать сообщения:    
Ответить на тему

Текущее время: Сегодня 10:15

Часовой пояс: GMT + 4



Вы не можете начинать темы
Вы не можете отвечать на сообщения
Вы не можете редактировать свои сообщения
Вы не можете удалять свои сообщения
Вы не можете голосовать в опросах
Вы не можете прикреплять файлы к сообщениям
Вы не можете скачивать файлы