Четвёртый вид / The Fourth Kind (Олатунде Осунсанми / Olatunde Osunsanmi) [2009, США, Великобритания, ужасы, фантастика, триллер, детектив, BDRemux 1080p] Dub + MVO + original eng + comm (eng) + subs (rus, eng)

Ответить на тему
 
Автор Сообщение

user ®

Стаж: 7 лет 7 месяцев

Сообщений: 20008

Пост Пост: #1 от 02-Ноя-2013 20:10

[Цитировать]

Четвёртый вид / The Fourth Kind
Страна: США, Великобритания
Жанр: ужасы, фантастика, триллер, детектив
Год выпуска: 2009
Продолжительность: 01:38:00
Перевод #1: Профессиональный (полное дублирование)
Перевод #2: Профессиональный (многоголосый закадровый)
Оригинальная аудиодорожка: английский
Режиссер: Олатунде Осунсанми / Olatunde Osunsanmi
В ролях: Милла Йовович, Уилл Пэттон, Хаким Кае-Казим, Кори Джонсон, Энцо Чиленти, Элиас Котеас, Эрик Лорен, Мия МакКенна-Брюс, Рафаэль Коулмэн, Дафна Александр
Описание: На территории Аляски происходят необъяснимые исчезновения людей. Несмотря на все усилия ФБР, расследования зашли в тупик, и тайна, по-прежнему, не раскрыта. Психиатр Эбигейл Тайлер начинает записывать на видео беседы со своими пациентами и обнаруживает нечто очень страшное и пугающее…
Сэмпл: SendSpace
Тип релиза: BDRemux 1080p
Контейнер: MKV
Видео: 1920x1080, 23.976fps, VC-1, 29530 kbps
Аудио: AC-3 5.1, 48 kHz, 16 bits, 448 kbps (RUS, Dub)
Аудио: AC-3 5.1, 48 kHz, 16 bits, 448 kbps (RUS, MVO)
Аудио: DTS-HD MA 5.1, 48 kHz, 24 bits, 3631 kbps (ядро: DTS 5.1, 48 kHz, 24 bits, 1509 kbps) (ENG)
Аудио: AC-3 2.0, 48 kHz, 16 bits, 192 kbps (ENG) Commentary
Cубтитры: русские, английские

MediaInfo

Общее
Уникальный идентификатор : 180112683951615067391542739835873029727 (0x878070EE7632D422AA9CD6E79F466E5F)
Полное имя : The.Fourth.Kind.2009.D.P.Rus.Eng.BDRemux.1080p.mkv
Формат : Matroska
Версия формата : Version 2
Размер файла : 23,4 Гбайт
Продолжительность : 1 ч. 38 м.
Режим общего битрейта : Переменный
Общий поток : 34,3 Мбит/сек
Дата кодирования : UTC 2013-10-31 16:33:42
Программа кодирования : mkvmerge v6.5.0 ('Isn't she lovely') built on Oct 20 2013 12:50:05
Библиотека кодирования : libebml v1.3.0 + libmatroska v1.4.1
Видео
Идентификатор : 1
Формат : VC-1
Профиль формата : Advanced@L3
Идентификатор кодека : V_MS/VFW/FOURCC / WVC1
Идентификатор кодека/Подсказка : Microsoft
Продолжительность : 1 ч. 38 м.
Ширина : 1920 пикселей
Высота : 1080 пикселей
Соотношение сторон : 16:9
Режим частоты кадров : Постоянный
Частота кадров : 23,976 кадра/сек
Цветовое пространство : YUV
Субдискретизация насыщенности : 4:2:0
Битовая глубина : 8 бит
Тип развёртки : Прогрессивная
Метод сжатия : С потерями
Язык : English
Default : Да
Forced : Нет
Аудио #1
Идентификатор : 2
Формат : AC-3
Формат/Информация : Audio Coding 3
Расширение режима : CM (complete main)
Параметр Endianness формата : Big
Идентификатор кодека : A_AC3
Продолжительность : 1 ч. 38 м.
Вид битрейта : Постоянный
Битрейт : 448 Кбит/сек
Каналы : 6 каналов
Расположение каналов : Front: L C R, Side: L R, LFE
Частота : 48,0 КГц
Битовая глубина : 16 бит
Метод сжатия : С потерями
Размер потока : 314 Мбайт (1%)
Язык : Russian
Default : Да
Forced : Нет
Аудио #2
Идентификатор : 3
Формат : AC-3
Формат/Информация : Audio Coding 3
Расширение режима : CM (complete main)
Параметр Endianness формата : Big
Идентификатор кодека : A_AC3
Продолжительность : 1 ч. 38 м.
Вид битрейта : Постоянный
Битрейт : 448 Кбит/сек
Каналы : 6 каналов
Расположение каналов : Front: L C R, Side: L R, LFE
Частота : 48,0 КГц
Битовая глубина : 16 бит
Метод сжатия : С потерями
Размер потока : 314 Мбайт (1%)
Язык : Russian
Default : Нет
Forced : Нет
Аудио #3
Идентификатор : 4
Формат : DTS
Формат/Информация : Digital Theater Systems
Профиль формата : MA / Core
Режим : 16
Параметр Endianness формата : Big
Идентификатор кодека : A_DTS
Продолжительность : 1 ч. 38 м.
Вид битрейта : Переменный
Битрейт : Неизвестно / 1509 Кбит/сек
Каналы : 6 каналов
Расположение каналов : Front: L C R, Side: L R, LFE
Частота : 48,0 КГц
Битовая глубина : 24 бит
Метод сжатия : Без потерь / Lossy
Язык : English
Default : Нет
Forced : Нет
Аудио #4
Идентификатор : 5
Формат : AC-3
Формат/Информация : Audio Coding 3
Профиль формата : Dolby Digital
Расширение режима : CM (complete main)
Параметр Endianness формата : Big
Идентификатор кодека : A_AC3
Продолжительность : 1 ч. 38 м.
Вид битрейта : Постоянный
Битрейт : 192 Кбит/сек
Каналы : 2 канала
Расположение каналов : Front: L R
Частота : 48,0 КГц
Битовая глубина : 16 бит
Метод сжатия : С потерями
Размер потока : 135 Мбайт (1%)
Заголовок : Commentary
Язык : English
Default : Нет
Forced : Нет
Текст #1
Идентификатор : 6
Формат : UTF-8
Идентификатор кодека : S_TEXT/UTF8
Идентификатор кодека/Информация : UTF-8 Plain Text
Язык : Russian
Default : Нет
Forced : Нет
Текст #2
Идентификатор : 7
Формат : UTF-8
Идентификатор кодека : S_TEXT/UTF8
Идентификатор кодека/Информация : UTF-8 Plain Text
Язык : English
Default : Нет
Forced : Нет
Меню
00:00:00.000 : en:00:00:00.000
00:01:42.227 : en:00:01:42.227
00:08:16.704 : en:00:08:16.704
00:13:53.206 : en:00:13:53.206
00:19:54.777 : en:00:19:54.777
00:24:25.297 : en:00:24:25.297
00:28:32.961 : en:00:28:32.961
00:33:37.473 : en:00:33:37.473
00:36:56.755 : en:00:36:56.755
00:43:03.498 : en:00:43:03.498
00:47:29.679 : en:00:47:29.679
00:52:42.576 : en:00:52:42.576
00:56:45.443 : en:00:56:45.443
01:01:00.782 : en:01:01:00.782
01:05:16.454 : en:01:05:16.454
01:09:48.350 : en:01:09:48.350
01:14:15.242 : en:01:14:15.242
01:20:38.375 : en:01:20:38.375
01:27:30.537 : en:01:27:30.537
01:32:21.368 : en:01:32:21.368

Скриншот с названием

Скриншоты

Скачать

Скачать торрент!

Как скачивать? · Что такое торрент? · Рейтинг и ограничения

Сайт не распространяет и не хранит электронные версии произведений, а лишь предоставляет доступ к создаваемому пользователями каталогу ссылок на торрент-файлы, которые содержат только списки хеш-сумм

[Профиль] [ЛС]
Показать сообщения:    
Ответить на тему

Текущее время: Сегодня 05:03

Часовой пояс: GMT + 4



Вы не можете начинать темы
Вы не можете отвечать на сообщения
Вы не можете редактировать свои сообщения
Вы не можете удалять свои сообщения
Вы не можете голосовать в опросах
Вы не можете прикреплять файлы к сообщениям
Вы не можете скачивать файлы