Виртуозность / Виртуальность / Убийца виртуоз / Virtuosity (Бретт Леонард / Brett Leonard) [1995, США, фантастика, боевик, триллер, криминал, BDRemux 1080p] MVO (СТС) + 2xDVO (НТВ+, NORD) + AVO (Ю.Живов) + Original Eng + Sub Eng

Ответить на тему
 
Автор Сообщение

user ®

Стаж: 7 лет 7 месяцев

Сообщений: 20008

Пост Пост: #1 от 02-Ноя-2013 20:10

[Цитировать]

Виртуозность / Виртуальность / Убийца виртуоз / Virtuosity«Justice needs a new program»- Страна: США | Paramount Pictures
Жанр: фантастика, боевик, триллер, криминал
Год выпуска: 1995
Продолжительность: 01:45:53-Перевод: Профессиональный многоголосый закадровый СТС
+ Профессиональный двухголосый закадровый НТВ+
+ Профессиональный двухголосый закадровый NORD
+ Авторский одноголосый закадровый Ю.Живов
Оригинальная аудиодорожка: [English]
Cубтитры: English-Режиссер: Бретт Леонард / Brett Leonard
В ролях: Уильям Файтнер, Расселл Кроу, Дэнзел Вашингтон, Уильям Форсайт, Кевин Дж. О'Коннор, Луиз Флетчер, Костас Мэндилор, Стивен Спинелла, Келли Линч- -Описание: Его имя Сид 6.7. Он создан из двухсот отборных подонков, негодяев и психопатов, наделен интеллектом и хитростью самых знаменитых серийных убийц в истории человечества.
Сид 6,7 был специально придуман, как совершенное воплощение зла и жестокости, для особой компьютерной программы, помогающей полицейским ловить преступников. Но случилось непоправимое.
Сиду удалось сбежать из кибернетического пространства в реальный мир. Идеальный преступник был на свободе и жаждал преподать людям страшный урок…
Единственным человеком, который встал на пути компьютерного садиста, оказался полицейский по имени Паркер Барнис. Но офицеру Барнису всегда приходилось иметь дело с бандитами из плоти и крови. Сможет ли он совладать с неуязвимым Сидом 6,7?-Качество видео: BDRemux 1080p | Сэмпл
Формат видео: MKV-Видео: 1920x1080 at 23.976 fps, MPEG-4 AVC Video, 16:9, 33966 kbps
Аудио 1: 48 kHz, AC3, 2.0 ch, ~192.00 kbps avg | Профессиональный многоголосый закадровый СТС
Аудио 2: 48 kHz, AC3, 2.0 ch, ~192.00 kbps avg | Профессиональный двухголосый закадровый НТВ+
Аудио 3: 48 kHz, AC3, 2.0 ch, ~192.00 kbps avg | Профессиональный двухголосый закадровый NORD
Аудио 4: 48 kHz, AC3, 3/2 (L,C,R,l,r) + LFE ch, 448.00 kbps avg | Авторский одноголосый закадровый Ю.Живов
Аудио 5: DTS-HD Master Audio 5.1 / (48 kHz / 4506 kbps / 24-bit) (DTS Core: 5.1 / 48 kHz / 1509 kbps / 24-bit) | [English]-Формат субтитров: softsub (srt)
Главы: есть-

Дополнительно

  • Ю.Живов взят у formally, автору большое спасибо. Проведена синхронизация, на пропуски вставлен оригинал, мест без перевода нет спасибо GansAn
  • Многоголосые переводы взяты у tеko за что авторам и ему большое спасибо.

MediaInfo

Код:
General
Unique ID : 198878674659874480896169378021732948820 (0x959EA3B5243946A6983E6DAE7E269B54)
Complete name : D:\Фильмы\Virtuosity.1995.BDRemux.(1080p).mkv
Format : Matroska
Format version : Version 4 / Version 2
File size : 29.0 GiB
Duration : 1h 45mn
Overall bit rate mode : Variable
Overall bit rate : 39.2 Mbps
Movie name : MediaClub-kaspr
Encoded date : UTC 2013-10-15 19:26:27
Writing application : mkvmerge v6.1.0 ('Old Devil') built on Mar 4 2013 09:10:42
Writing library : libebml v1.3.0 + libmatroska v1.4.0
Video
ID : 1
Format : AVC
Format/Info : Advanced Video Codec
Format profile : High@L4.1
Format settings, CABAC : Yes
Format settings, ReFrames : 4 frames
Codec ID : V_MPEG4/ISO/AVC
Duration : 1h 45mn
Bit rate mode : Variable
Maximum bit rate : 35.0 Mbps
Width : 1 920 pixels
Height : 1 080 pixels
Display aspect ratio : 16:9
Frame rate mode : Constant
Frame rate : 23.976 fps
Color space : YUV
Chroma subsampling : 4:2:0
Bit depth : 8 bits
Scan type : Progressive
Title : MediaClub-kaspr
Default : Yes
Forced : Yes
Audio #1
ID : 2
Format : AC-3
Format/Info : Audio Coding 3
Mode extension : CM (complete main)
Format settings, Endianness : Big
Codec ID : A_AC3
Duration : 1h 45mn
Bit rate mode : Constant
Bit rate : 192 Kbps
Channel(s) : 2 channels
Channel positions : Front: L R
Sampling rate : 48.0 KHz
Bit depth : 16 bits
Compression mode : Lossy
Stream size : 145 MiB (0%)
Title : STS
Language : Russian
Default : Yes
Forced : Yes
Audio #2
ID : 3
Format : AC-3
Format/Info : Audio Coding 3
Mode extension : CM (complete main)
Format settings, Endianness : Big
Codec ID : A_AC3
Duration : 1h 45mn
Bit rate mode : Constant
Bit rate : 192 Kbps
Channel(s) : 2 channels
Channel positions : Front: L R
Sampling rate : 48.0 KHz
Bit depth : 16 bits
Compression mode : Lossy
Stream size : 145 MiB (0%)
Title : NTV+
Language : Russian
Default : No
Forced : No
Audio #3
ID : 4
Format : AC-3
Format/Info : Audio Coding 3
Mode extension : CM (complete main)
Format settings, Endianness : Big
Codec ID : A_AC3
Duration : 1h 45mn
Bit rate mode : Constant
Bit rate : 192 Kbps
Channel(s) : 2 channels
Channel positions : Front: L R
Sampling rate : 48.0 KHz
Bit depth : 16 bits
Compression mode : Lossy
Stream size : 145 MiB (0%)
Title : Nord
Language : Russian
Default : No
Forced : No
Audio #4
ID : 5
Format : AC-3
Format/Info : Audio Coding 3
Mode extension : CM (complete main)
Format settings, Endianness : Big
Codec ID : A_AC3
Duration : 1h 45mn
Bit rate mode : Constant
Bit rate : 448 Kbps
Channel(s) : 6 channels
Channel positions : Front: L C R, Side: L R, LFE
Sampling rate : 48.0 KHz
Bit depth : 16 bits
Compression mode : Lossy
Stream size : 339 MiB (1%)
Title : Jivov
Language : Russian
Default : No
Forced : No
Audio #5
ID : 6
Format : DTS
Format/Info : Digital Theater Systems
Format profile : MA / Core
Mode : 16
Format settings, Endianness : Big
Codec ID : A_DTS
Duration : 1h 45mn
Bit rate mode : Variable
Bit rate : Unknown / 1 509 Kbps
Channel(s) : 6 channels
Channel positions : Front: L C R, Side: L R, LFE
Sampling rate : 48.0 KHz
Bit depth : 24 bits
Compression mode : Lossless / Lossy
Language : English
Default : No
Forced : No
Text
ID : 7
Format : UTF-8
Codec ID : S_TEXT/UTF8
Codec ID/Info : UTF-8 Plain Text
Language : English
Default : No
Forced : No
Menu
00:00:00.000 : en:Chapter 01
00:07:48.843 : en:Chapter 02
00:12:16.235 : en:Chapter 03
00:16:12.596 : en:Chapter 04
00:18:01.371 : en:Chapter 05
00:21:19.194 : en:Chapter 06
00:25:11.384 : en:Chapter 07
00:31:30.930 : en:Chapter 08
00:35:41.472 : en:Chapter 09
00:40:19.250 : en:Chapter 10
00:48:51.136 : en:Chapter 11
00:52:28.061 : en:Chapter 12
00:56:36.518 : en:Chapter 13
01:02:41.883 : en:Chapter 14
01:06:55.136 : en:Chapter 15
01:12:33.849 : en:Chapter 16
01:20:54.516 : en:Chapter 17
01:27:40.380 : en:Chapter 18
01:32:57.071 : en:Chapter 19
01:38:44.877 : en:Chapter 20

Скриншоты

Скачать

Скачать торрент!

Как скачивать? · Что такое торрент? · Рейтинг и ограничения

Сайт не распространяет и не хранит электронные версии произведений, а лишь предоставляет доступ к создаваемому пользователями каталогу ссылок на торрент-файлы, которые содержат только списки хеш-сумм

[Профиль] [ЛС]
Показать сообщения:    
Ответить на тему

Текущее время: Сегодня 12:55

Часовой пояс: GMT + 4



Вы не можете начинать темы
Вы не можете отвечать на сообщения
Вы не можете редактировать свои сообщения
Вы не можете удалять свои сообщения
Вы не можете голосовать в опросах
Вы не можете прикреплять файлы к сообщениям
Вы не можете скачивать файлы