Брелок (Ильдар Ягафаров) [2010 г., драма, короткометражный, HDRip]

Ответить на тему
 
Автор Сообщение

user ®

Стаж: 7 лет 7 месяцев

Сообщений: 20008

Пост Пост: #1 от 02-Ноя-2013 12:05

[Цитировать]

БрелокГод выпуска: 2010.
Жанр: драма, короткометражный.
Продолжительность: 00:22:11.
Режиссер: Ильдар Ягафаров.
В ролях:
Марина Матвеева, Марсель Тимофеев, Гузель Шакирзянова, Азат Тукбаев, Дамир Сулейманов.
Описание:
Это фильм о сложном взаимоотношении отцов и детей. Главный герой картины Марат узнаёт о смерти своего отца. Воспоминания переносят героя в детство, когда произошла его единственная встреча с папой. Так для Марата отец становится одним днём его жизни.
Доп. информация:
Страна: Россия .
Выпущено: ООО "Я-Production™".
Авторs сценария: Ильдар Ягафаров, Лейла Хасанова.
Оператор: Эмир Золондинов.
Художник: Ильгизар Хасанов.
Композитор: Радик Салимов.
Релиз
Рип sharky.

Качество: HDRip
Формат: AVI
Видео: 704x400 (1.76:1), 25 fps, XviD build 50 ~1819 kbps avg, 0.26 bit/pixel
Аудио: 48 kHz, AC3 Dolby Digital, 2/0 (L,R) ch, ~192 kbps

Отчет MediaInfo

Общее
Полное имя : Brelok.2010.XviD.HDRip.fenixclub.avi
Format : AVI
Format/Info : Audio Video Interleave
File size : 321 MiB
Duration : 22mn 11s
Overall bit rate : 2 022 Kbps
Writing application : VirtualDubMod 1.5.10.2 (build 2542/release)
Writing library : VirtualDubMod build 2542/release
Video
ID : 0
Format : MPEG-4 Visual
Format profile : Advanced Simple@L5
Format settings, BVOP : 2
Format settings, QPel : No
Format settings, GMC : No warppoints
Format settings, Matrix : Default (H.263)
Muxing mode : Packed bitstream
Codec ID : XVID
Codec ID/Hint : XviD
Duration : 22mn 11s
Bit rate : 1 820 Kbps
Width : 704 pixels
Height : 400 pixels
Display aspect ratio : 16:9
Frame rate : 25.000 fps
Color space : YUV
Chroma subsampling : 4:2:0
Bit depth : 8 bits
Scan type : Progressive
Compression mode : Lossy
Bits/(Pixel*Frame) : 0.258
Stream size : 289 MiB (90%)
Writing library : XviD 1.2.1 (UTC 2008-12-04)
Audio
ID : 1
Format : AC-3
Format/Info : Audio Coding 3
Mode extension : CM (complete main)
Format settings, Endianness : Big
Codec ID : 2000
Duration : 22mn 11s
Bit rate mode : Constant
Bit rate : 192 Kbps
Channel(s) : 2 channels
Channel positions : Front: L R
Sampling rate : 48.0 KHz
Bit depth : 16 bits
Compression mode : Lossy
Stream size : 30.5 MiB (9%)
Alignment : Split accross interleaves
Interleave, duration : 40 ms (1.00 video frame)
Interleave, preload duration : 500 ms

Скриншот с названием

Скриншоты


Альтернативный хост


Скачать

Скачать торрент!

Как скачивать? · Что такое торрент? · Рейтинг и ограничения

Сайт не распространяет и не хранит электронные версии произведений, а лишь предоставляет доступ к создаваемому пользователями каталогу ссылок на торрент-файлы, которые содержат только списки хеш-сумм

[Профиль] [ЛС]
Показать сообщения:    
Ответить на тему

Текущее время: Сегодня 06:08

Часовой пояс: GMT + 4



Вы не можете начинать темы
Вы не можете отвечать на сообщения
Вы не можете редактировать свои сообщения
Вы не можете удалять свои сообщения
Вы не можете голосовать в опросах
Вы не можете прикреплять файлы к сообщениям
Вы не можете скачивать файлы