Питер FM (Оксана Бычкова) [2006, Мелодрама, Комедия, DVDRip-AVC]

Ответить на тему
 
Автор Сообщение

user ®

Стаж: 7 лет 7 месяцев

Сообщений: 20008

Пост Пост: #1 от 02-Ноя-2013 08:55

[Цитировать]

Питер FM- Жанр: Мелодрама, Комедия
Год выпуска: 2006
Продолжительность: 01:24:00-Режиссер: Оксана Бычкова
В ролях: Екатерина Федулова, Евгений Цыганов, Алексей Барабаш, Ирина Рахманова, Наталья Рева, Олег Долин, Евгений Кулаков, Кирилл Пирогов, Татьяна Кравченко, Александр Баширов и др.-Описание: Маша — диджей на популярном питерском радио, Максим — молодой архитектор. Маша готовится к свадьбе с бывшим одноклассником Костей, Максим победил в международном конкурсе архитекторов, и теперь его зовут на работу в Германию. Но оба они не уверены, что им нужно именно это.
Максима удерживает в Питере любовь к девушке, которая его оставила, а Маша чувствует, что ее жених Костя — совсем не тот человек, который ей нужен. И, кто знает, как бы повернулась их судьба, если бы не Случай — Маша теряет мобильный телефон, а Максим его находит...- -Автор: AngelOfTrue--Качество видео: DVDRip-AVC
Формат видео: MKV
Видео: 710x556@774x556 (4:3), 25 fps, x264 ~2010 kbps avg, 0.204 bit/pixel
Аудио: AC3 Dolby Digital / 48 KHz / 448 kbps / 3/2 (L,C,R,l,r) + LFE ch

x264 log

avs [info]: 710x556p 12:11 @ 25/1 fps (cfr)
x264 [warning]: --psnr used with psy on: results will be invalid!
x264 [warning]: --tune psnr should be used if attempting to benchmark psnr!
x264 [info]: using SAR=12/11
x264 [info]: using cpu capabilities: MMX2 SSE2Fast SSSE3 SSE4.2 AVX AVX2 FMA3 LZCNT BMI1 BMI2
x264 [info]: profile High, level 3.1
x264 [info]: frame I:44 Avg QP:18.30 size: 46711 PSNR Mean Y:47.34 U:50.07 V:50.39 Avg:48.08 Global:46.60
x264 [info]: frame P:595 Avg QP:20.64 size: 19070 PSNR Mean Y:45.26 U:48.43 V:48.82 Avg:46.09 Global:45.23
x264 [info]: frame B:1861 Avg QP:21.95 size: 6282 PSNR Mean Y:45.36 U:48.91 V:49.23 Avg:46.25 Global:44.63
x264 [info]: consecutive B-frames: 5.4% 2.8% 8.9% 22.7% 15.4% 37.7% 1.7% 2.2% 0.4% 0.0% 0.0% 2.9%
x264 [info]: mb I I16..4: 7.1% 75.3% 17.6%
x264 [info]: mb P I16..4: 1.9% 19.8% 2.6% P16..4: 28.2% 29.6% 10.5% 1.4% 0.1% skip: 6.0%
x264 [info]: mb B I16..4: 0.2% 1.9% 0.2% B16..8: 27.8% 19.8% 3.2% direct: 7.9% skip:39.1% L0:36.4% L1:40.5% BI:23.2%
x264 [info]: 8x8 transform intra:80.7% inter:61.9%
x264 [info]: direct mvs spatial:97.5% temporal:2.5%
x264 [info]: coded y,uvDC,uvAC intra: 87.4% 85.7% 64.7% inter: 27.9% 24.2% 8.5%
x264 [info]: i16 v,h,dc,p: 36% 17% 13% 34%
x264 [info]: i8 v,h,dc,ddl,ddr,vr,hd,vl,hu: 18% 13% 6% 7% 10% 12% 10% 12% 12%
x264 [info]: i4 v,h,dc,ddl,ddr,vr,hd,vl,hu: 18% 15% 5% 7% 11% 13% 11% 9% 10%
x264 [info]: i8c dc,h,v,p: 34% 26% 24% 15%
x264 [info]: Weighted P-Frames: Y:14.3% UV:8.2%
x264 [info]: ref P L0: 50.7% 12.5% 17.5% 6.8% 4.3% 3.0% 2.2% 1.3% 0.9% 0.7% 0.2% 0.0%
x264 [info]: ref B L0: 83.2% 10.0% 3.1% 1.4% 0.9% 0.6% 0.4% 0.2% 0.1%
x264 [info]: ref B L1: 96.0% 4.0%
x264 [info]: SSIM Mean Y:0.9835055 (17.827db)
x264 [info]: PSNR Mean Y:45.373 U:48.815 V:49.151 Avg:46.244 Global:44.795 kb/s:2007.49
encoded 2500 frames, 10.41 fps, 2007.55 kb/s

-

MediaInfo

Format : Matroska
Format version : Version 4 / Version 2
File size : 1.44 GiB
Duration : 1h 24mn
Overall bit rate : 2 459 Kbps
Encoded date : UTC 2013-11-01 10:46:10
Writing application : mkvmerge v6.1.0 ('Old Devil') built on Mar 4 2013 09:10:42
Writing library : libebml v1.3.0 + libmatroska v1.4.0
Video
ID : 1
Format : AVC
Format/Info : Advanced Video Codec
Format profile : High@L3.1
Format settings, CABAC : Yes
Format settings, ReFrames : 10 frames
Codec ID : V_MPEG4/ISO/AVC
Duration : 1h 24mn
Bit rate : 2 010 Kbps
Width : 710 pixels
Height : 556 pixels
Display aspect ratio : 1.392
Original display aspect ratio : 1.393
Frame rate mode : Constant
Frame rate : 25.000 fps
Color space : YUV
Chroma subsampling : 4:2:0
Bit depth : 8 bits
Scan type : Progressive
Bits/(Pixel*Frame) : 0.204
Stream size : 1.15 GiB (80%)
Title : Piter.Fm.2006.RUS.DVDRip-AVC.AC3.-AngelOfTrue
Writing library : x264 core 130 r2273 b3065e6
Encoding settings : cabac=1 / ref=10 / deblock=1:-2:-1 / analyse=0x3:0x133 / me=umh / subme=11 / psy=1 / psy_rd=1.00:0.10 / mixed_ref=1 / me_range=32 / chroma_me=1 / trellis=2 / 8x8dct=1 / cqm=0 / deadzone=21,11 / fast_pskip=0 / chroma_qp_offset=-3 / threads=6 / lookahead_threads=1 / sliced_threads=0 / nr=0 / decimate=0 / interlaced=0 / bluray_compat=0 / constrained_intra=0 / bframes=11 / b_pyramid=2 / b_adapt=2 / b_bias=0 / direct=3 / weightb=1 / open_gop=0 / weightp=2 / keyint=250 / keyint_min=25 / scenecut=40 / intra_refresh=0 / rc=2pass / mbtree=0 / bitrate=2010 / ratetol=1.0 / qcomp=0.65 / qpmin=10 / qpmax=51 / qpstep=4 / cplxblur=20.0 / qblur=0.5 / ip_ratio=1.35 / pb_ratio=1.25 / aq=2:1.00
Language : Russian
Default : Yes
Forced : No
Audio
ID : 2
Format : AC-3
Format/Info : Audio Coding 3
Mode extension : CM (complete main)
Format settings, Endianness : Big
Codec ID : A_AC3
Duration : 1h 24mn
Bit rate mode : Constant
Bit rate : 448 Kbps
Channel count : 6 channels
Channel positions : Front: L C R, Side: L R, LFE
Sampling rate : 48.0 KHz
Bit depth : 16 bits
Compression mode : Lossy
Stream size : 269 MiB (18%)
Title : AC3 Dolby Digital / 48 KHz / 384 kbps / 3/2 (L,C,R,l,r) + LFE ch
Language : Russian
Default : Yes
Forced : Yes

-

Скриншоты (анаморф)


Скачать

Скачать торрент!

Как скачивать? · Что такое торрент? · Рейтинг и ограничения

Сайт не распространяет и не хранит электронные версии произведений, а лишь предоставляет доступ к создаваемому пользователями каталогу ссылок на торрент-файлы, которые содержат только списки хеш-сумм

[Профиль] [ЛС]
Показать сообщения:    
Ответить на тему

Текущее время: Сегодня 14:30

Часовой пояс: GMT + 4



Вы не можете начинать темы
Вы не можете отвечать на сообщения
Вы не можете редактировать свои сообщения
Вы не можете удалять свои сообщения
Вы не можете голосовать в опросах
Вы не можете прикреплять файлы к сообщениям
Вы не можете скачивать файлы