Лепрекон / Leprechaun (Марк Джонс / Mark Jones) [1993, США, ужасы, фэнтези, комедия, WEB-DL 720p] 2х MVO (CP Digital, РЕН-ТВ) + AVO (Алексей Михалев) + Sub Rus, Eng + Original Eng

Ответить на тему
 
Автор Сообщение

user ®

Стаж: 7 лет 7 месяцев

Сообщений: 20008

Пост Пост: #1 от 01-Ноя-2013 22:20

[Цитировать]

Лепрекон / Leprechaun
Страна: США
Жанр: ужасы, фэнтези, комедия
Год выпуска: 1993
Продолжительность: 01:31:27
Перевод 1: Профессиональный (многоголосый закадровый) - CP Digital
Перевод 2: Авторский (одноголосый закадровый) - Алексей Михалев
Перевод 3: Профессиональный (многоголосый закадровый) - РЕН-ТВ
Cубтитры: русские, английские
Оригинальная аудиодорожка: английский
Режиссер: Марк Джонс / Mark Jones
В ролях: Уорвик Дэвис, Дженнифер Энистон, Кен Оландт, Марк Холтон, Роберт Хай Гормен, Шэй Даффин, Джон Сандерфорд, Джон Волдстад, Памела Мэнт, Уильям Ньюман
Описание: Мистер О'Грейди неожиданно приезжает из Ирландии богатым человеком. Жена О'Грейди думает, что он просто пьян и не в своём уме, когда О»Грейди заявляет, что он украл золото у Лепрекона и сейчас они заживут по-новому.
Правда, он не учёл маленькой детали: сам Лепрекон каким-то образом приехал вместе с ним в одном из чемоданов и одержим местью к тому, кто позарился на его богатства…
Сэмпл: http://www.sendspace.com/file/1sljqa
Тип релиза: WEB-DL 720p
Контейнер: MKV
Видео: x264, 1280x718, 4156 Kbps, 23,976 fps
Аудио 1: English, AAC, 161 кб/с, 48000 Гц, 2 ch
Аудио 2: Russian, AC3, 448 кб/с, 48000 Гц, 5.1 ch - CP Digital
Аудио 3: Russian, AC3, 192 кб/с, 48000 Гц, 2 ch - А. Михалев
Аудио 4: Russian, MP3, 128 кб/с, 48000 Гц, 2 ch - REN-TV

MediaInfo

General
Unique ID : 144266781753879325240985639273666406572 (0x6C88C580C353DB43AEE9526E856F68AC)
Complete name : /media/alexandr/files/Леприкон/Leprechaun.1993.720p.WEB-DL.AAC2.0.H.264.mkv
Format : Matroska
Format version : Version 4 / Version 2
File size : 3.25 GiB
Duration : 1h 31mn
Overall bit rate : 5 085 Kbps
Movie name : ripped by HD4FUN.COM
Encoded date : UTC 2013-10-29 19:52:48
Writing application : mkvmerge v6.3.0 ('You can't stop me!') built on Jun 29 2013 11:48:33
Writing library : libebml v1.3.0 + libmatroska v1.4.0
Video
ID : 1
Format : AVC
Format/Info : Advanced Video Codec
Format profile : High@L3.1
Format settings, CABAC : No
Format settings, ReFrames : 2 frames
Codec ID : V_MPEG4/ISO/AVC
Duration : 1h 31mn
Width : 1 280 pixels
Height : 718 pixels
Display aspect ratio : 16:9
Frame rate mode : Constant
Frame rate : 23.976 fps
Color space : YUV
Chroma subsampling : 4:2:0
Bit depth : 8 bits
Scan type : Progressive
Title : Leprechaun 1993
Language : English
Default : Yes
Forced : No
Color primaries : BT.709
Transfer characteristics : BT.709
Matrix coefficients : BT.709
Audio #1
ID : 2
Format : AAC
Format/Info : Advanced Audio Codec
Format profile : LC
Codec ID : A_AAC
Duration : 1h 31mn
Channel count : 2 channels
Channel positions : Front: L R
Sampling rate : 48.0 KHz
Compression mode : Lossy
Title : English
Language : English
Default : No
Forced : No
Audio #2
ID : 4
Format : AC-3
Format/Info : Audio Coding 3
Mode extension : CM (complete main)
Format settings, Endianness : Big
Codec ID : A_AC3
Duration : 1h 31mn
Bit rate mode : Constant
Bit rate : 448 Kbps
Channel count : 6 channels
Channel positions : Front: L C R, Side: L R, LFE
Sampling rate : 48.0 KHz
Bit depth : 16 bits
Compression mode : Lossy
Delay relative to video : 8ms
Stream size : 293 MiB (9%)
Title : CP Digital
Language : Russian
Default : Yes
Forced : No
Audio #3
ID : 5
Format : AC-3
Format/Info : Audio Coding 3
Mode extension : CM (complete main)
Format settings, Endianness : Big
Codec ID : A_AC3
Duration : 1h 31mn
Bit rate mode : Constant
Bit rate : 192 Kbps
Channel count : 2 channels
Channel positions : Front: L R
Sampling rate : 48.0 KHz
Bit depth : 16 bits
Compression mode : Lossy
Delay relative to video : 8ms
Stream size : 126 MiB (4%)
Title : Алексей Михалев
Language : Russian
Default : No
Forced : No
Audio #4
ID : 6
Format : MPEG Audio
Format version : Version 1
Format profile : Layer 3
Codec ID : A_MPEG/L3
Codec ID/Hint : MP3
Duration : 1h 31mn
Bit rate mode : Constant
Bit rate : 128 Kbps
Channel count : 2 channels
Sampling rate : 48.0 KHz
Compression mode : Lossy
Stream size : 83.7 MiB (3%)
Title : PEH TB
Language : Russian
Default : No
Forced : No
Text #1
ID : 3
Format : UTF-8
Codec ID : S_TEXT/UTF8
Codec ID/Info : UTF-8 Plain Text
Title : English
Language : English
Default : No
Forced : No
Text #2
ID : 7
Format : UTF-8
Codec ID : S_TEXT/UTF8
Codec ID/Info : UTF-8 Plain Text
Title : Russian
Language : Russian
Default : Yes
Forced : No
Menu
00:00:00.000 : en:Chapter 1
00:10:30.000 : en:Chapter 2
00:18:05.000 : en:Chapter 3
00:26:27.000 : en:Chapter 4
00:34:01.000 : en:Chapter 5
00:41:58.000 : en:Chapter 6
00:49:13.000 : en:Chapter 7
00:58:11.000 : en:Chapter 8
01:05:32.000 : en:Chapter 9
01:13:57.000 : en:Chapter 10
01:22:54.000 : en:Chapter 11

Скриншоты

Скачать

Скачать торрент!

Как скачивать? · Что такое торрент? · Рейтинг и ограничения

Сайт не распространяет и не хранит электронные версии произведений, а лишь предоставляет доступ к создаваемому пользователями каталогу ссылок на торрент-файлы, которые содержат только списки хеш-сумм

[Профиль] [ЛС]
Показать сообщения:    
Ответить на тему

Текущее время: Сегодня 06:01

Часовой пояс: GMT + 4



Вы не можете начинать темы
Вы не можете отвечать на сообщения
Вы не можете редактировать свои сообщения
Вы не можете удалять свои сообщения
Вы не можете голосовать в опросах
Вы не можете прикреплять файлы к сообщениям
Вы не можете скачивать файлы