Принц города / Prince of the City (Сидни Люмет / Sidney Lumet) [1981, США, Триллер / Детектив, WEB-DL 720p] AVO (Михалёв) + DVO + Sub Eng + Original Eng

Ответить на тему
 
Автор Сообщение

user ®

Стаж: 7 лет 7 месяцев

Сообщений: 20008

Пост Пост: #1 от 01-Ноя-2013 22:20

[Цитировать]

Принц Города / Prince of the City
Страна: США
Студия: Orion Pictures Corporation
Жанр: Триллер / Детектив
Год выпуска: 1981
Продолжительность: 02:47:33
Перевод 1: Авторский (одноголосый закадровый) Алексей Михалёв
Перевод 2: Профессиональный (двухголосый закадровый)
Cубтитры: английские
Оригинальная аудиодорожка: английский
В ролях: Трит Уильямс /Treat Williams/, Джерри Орбак /Jerry Orbach/, Дон Биллетт /Don Billett/, Кенни Марино /Kenny Marino/, Кармайн Кариди /Carmine Caridi/, Боб Балабан /Bob Balaban/, Пол Реблинг /Paul Roebling/, Ричард Форонджи /Richard Foronjy/, Тони Пэйдж /Tony Page/, Норман Паркер /Norman Parker/, Лэнс Хенриксен /Lance Henriksen/
Описание: Завораживающая правдивая история о полицейском (великолепная игра Трита Уильямса) из отдела по борьбе с наркотиками, который решил разоблачить коррупцию. Фильм дает детализированный взгляд на процесс, в котором человек, начавший очищать себя, раскрывая правду, постепенно вынужден давать информацию о своих друзьях, работающих с ним в полиции. За основу сюжета взята книга Роберта Дэйли, сценарий получил номинацию на "Оскар". (Иванов М.)
Альтернативное описание: Тема законности и правопорядка волнует Сидни Люмета ещё со времени создания прославленной ленты «12 разгневанных мужчин» (1957). В нашем кинопрокате также демонстрировалась ещё одна его судебная драма — «Вердикт» (1982), кстати, самая кассовая для режиссёра. Наряду с этим Люмет ставит детективы (отечественные зрители знают его фильмы «Убийство в Восточном экспрессе» и «На следующее утро»), картины про полицейских и криминальные истории. А «Принц города» развивает заявленное американским постановщиком в таких работах, как «Серпико» и «Жарким днём после обеда», стремление к аутентичности и документальности всего происходящего на экране, однако с тщательной психологической разработкой характеров героев.
Молодой полицейский Дэниел Чиелло из бригады по борьбе с наркотиками (в реальности — Боб Леучи, который служил в нью-йоркской полиции в начале 70-х годов) был привлечён специальным отделом расследования в качестве агента для того, чтобы давать показания против своих же коллег, то есть избавлять полицию от коррупции и наводить там порядок. С одной стороны, он прав, полагая, что действительно помогает осуществлению благородной миссии по очищению правоохранительных органов от случайных людей, не брезгующих взятками. Но, с другой стороны, тот, кого называют Принцем города, сам не идеален и вряд ли поступает нравственно, утаивая свои секреты и выдавая друзей.
Сильная, строгая, порой резкая и жёсткая полицейская драма Сидни Люмета впечатляюще рисует нравы защитников закона из Нью-Йорка. Убедителен в заглавной роли Трит Уильямс, который незадолго до этого получил известность, снявшись в кинорок-мюзикле «Волосы». Правда, телевизионное прошлое режиссёра, его любовь к разговорным лентам, а в данном случае — ещё и длинноты вкупе с затянутостью действия отрицательно сказываются на общем художественном уровне фильма «Принц города». (Сергей Кудрявцев)
--------------------------------------------------------------------
Оператор: Анджей Бартковяк /Andrzej Bartkowiak/
Сценарист: Джэй Прессон Аллен /Jay Presson Allen/, Сидни Люмет /Sidney Lumet/
Продюсер: Бертт Харрис /Burtt Harris/
Монтажер: Джон Дж. Фицстивенс /John J. Fitzstephens/
Композитор: Пол Чихара /Paul Chihara/
Художник: Эдвард Пизони /Edward Pisoni/, Тони Уолтон /Tony Walton/
Костюмы: Анна Хилл Джонстоун /Anna Hill Johnstone/
--------------------------------------------------

Награды

Награды:
Оскар, 1982год

Номинации (1):
* Лучший адаптированный сценарий
Золотой глобус, 1982 год

Номинации (3)
* Лучшая мужская роль (драма) (Трит Уильямс)
* Лучший фильм (драма)
* Лучший режиссер (Сидни Люмет)
Венецианский кинофестиваль, 1981 год
Победитель (1):
Кубок Пазинетти за лучший фильм
--------------------------------------------------
КИНОПОИСК. RU
РЕЙТИНГ 6.869 оценки: 83
7,5/10 from 3 746 users
--------------------------------------------------
--------------------------------------------------
СЭМПЛ
----------------
Тип релиза: WEB-DL 720p
Контейнер: MKV
Видео: 1274x720; 23.976 fps; ~ 4 008 Kbps; 0.182 Bits/Pixel
Аудио 1: Russian - 48 kHz, AC3 Dolby Digital, 2/0 (L,R) 2ch, ~192 kbps ~ 192 kbps - Алексей Михалёв
Аудио 2: Russian - 48 kHz, AC3 Dolby Digital, 2/0 (L,R) 2ch, ~192 kbps - DVO
Аудио 3: English - 48 kHz, AC3 Dolby Digital, 2/0 (L,R) 2ch, ~192 kbps - Original
Формат субтитров: English (*UTF-8)

MediaInfo

General
Complete name : F:\EXCLUZIVE=19\ПРИНЦ ГОРОДА=PRINCE OF THE CITY.1981\PRINCE OF THE CITY.1981.WEB-DL.720p\Prince.of.the.City.1981.720p.WEB-DL.mkv
Format : Matroska
File size : 5.47 GiB
Duration : 2h 47mn
Overall bit rate : 4 677 Kbps
Encoded date : UTC 2013-10-16 20:34:04
Writing application : mkvmerge v3.3.0 ('Language') built on Mar 24 2010 14:59:24
Writing library : libebml v0.8.0 + libmatroska v0.9.0
Video
ID : 1
Format : AVC
Format/Info : Advanced Video Codec
Format profile : High@L3.1
Format settings, CABAC : No
Format settings, ReFrames : 2 frames
Muxing mode : Container profile=Unknown@3.1
Codec ID : V_MPEG4/ISO/AVC
Duration : 2h 47mn
Bit rate : 4 008 Kbps
Width : 1 274 pixels
Height : 720 pixels
Display aspect ratio : 16:9
Frame rate : 23.976 fps
Color space : YUV
Chroma subsampling : 4:2:0
Bit depth : 8 bits
Scan type : Progressive
Bits/(Pixel*Frame) : 0.182
Stream size : 4.69 GiB (86%)
Title : Prince.of.the.City.1981
Language : English
Color primaries : BT.709-5, BT.1361, IEC 61966-2-4, SMPTE RP177
Transfer characteristics : BT.709-5, BT.1361
Matrix coefficients : BT.709-5, BT.1361, IEC 61966-2-4 709, SMPTE RP177
Audio #1
ID : 2
Format : AC-3
Format/Info : Audio Coding 3
Mode extension : CM (complete main)
Codec ID : A_AC3
Duration : 2h 47mn
Bit rate mode : Constant
Bit rate : 192 Kbps
Channel(s) : 2 channels
Channel positions : Front: L R
Sampling rate : 48.0 KHz
Stream size : 230 MiB (4%)
Title : AVO Михалёв @ AC3 2ch 192 kbps
Language : Russian
Audio #2
ID : 3
Format : AC-3
Format/Info : Audio Coding 3
Mode extension : CM (complete main)
Codec ID : A_AC3
Duration : 2h 47mn
Bit rate mode : Constant
Bit rate : 192 Kbps
Channel(s) : 2 channels
Channel positions : Front: L R
Sampling rate : 48.0 KHz
Stream size : 230 MiB (4%)
Title : DVO @ AC3 2ch 192 kbps
Language : Russian
Audio #3
ID : 4
Format : AC-3
Format/Info : Audio Coding 3
Mode extension : CM (complete main)
Codec ID : A_AC3
Duration : 2h 47mn
Bit rate mode : Constant
Bit rate : 192 Kbps
Channel(s) : 2 channels
Channel positions : Front: L R
Sampling rate : 48.0 KHz
Stream size : 230 MiB (4%)
Title : Original @ AC3 2ch 192 kbps
Language : English
Text
ID : 5
Format : UTF-8
Codec ID : S_TEXT/UTF8
Codec ID/Info : UTF-8 Plain Text
Title : (* UTF-8)
Language : English
Menu
00:00:00.000 : en:The Siu
00:03:31.000 : en:3-O'clock Bust
00:07:29.000 : en:Chase Commission
00:10:30.000 : en:Raging Ronnie
00:15:02.000 : en:Sick Stoolie
00:22:30.000 : en:Danny's Breakdown
00:27:54.000 : en:My Action
00:30:48.000 : en:Breakup
00:32:24.000 : en:Danny's Three Things
00:37:29.000 : en:Wired
00:44:41.000 : en:Ambivalent Zeal
00:50:44.000 : en:Case Against Blomberg
00:53:10.000 : en:Be Sure He's A Rat
00:56:34.000 : en:Your Partners And Me
01:00:40.000 : en:On The Federal Side
01:06:14.000 : en:In A Jam
01:09:57.000 : en:Never My Backup Again
01:13:02.000 : en:Use A Public Phone
01:15:42.000 : en:Gino Mascone, Whore And Thief
01:18:52.000 : en:Take Me In
01:21:27.000 : en:Danny's Confession
01:26:13.000 : en:Cabin In The Catskills
01:30:32.000 : en:First In Prison
01:33:20.000 : en:One Of Us
01:38:07.000 : en:Anybody Can Be Hit
01:43:00.000 : en:On The Stand
01:45:14.000 : en:King's Deposition
01:50:36.000 : en:Death And Dislocation
01:55:02.000 : en:Detecting Lies
01:59:15.000 : en:Alvarez On The System
02:02:42.000 : en:Nobody But Each Other
02:05:15.000 : en:Wanting To Admit Guilt
02:08:55.000 : en:Gus: Get Me For Assault
02:12:00.000 : en:Danny's Betrayal
02:18:07.000 : en:Choke On My Name
02:20:02.000 : en:Calling Old Friends
02:24:55.000 : en:Self Inflicted
02:30:10.000 : en:Gus Stays Out
02:33:08.000 : en:Debating Danny's Fate
02:37:17.000 : en:Some Area Of Penance
02:42:30.000 : en:The Detective Ciello
02:44:45.000 : en:End Credits

Скриншоты

, ,
, ,
, ,
Скачать

Скачать торрент!

Как скачивать? · Что такое торрент? · Рейтинг и ограничения

Сайт не распространяет и не хранит электронные версии произведений, а лишь предоставляет доступ к создаваемому пользователями каталогу ссылок на торрент-файлы, которые содержат только списки хеш-сумм

[Профиль] [ЛС]
Показать сообщения:    
Ответить на тему

Текущее время: Сегодня 20:10

Часовой пояс: GMT + 4



Вы не можете начинать темы
Вы не можете отвечать на сообщения
Вы не можете редактировать свои сообщения
Вы не можете удалять свои сообщения
Вы не можете голосовать в опросах
Вы не можете прикреплять файлы к сообщениям
Вы не можете скачивать файлы