Форсаж 6 / Fast & Furious 6 (Джастин Лин / Justin Lin) [2013, США, боевик, триллер, драма, криминал, HDRip-AVC] [Театральная версия / Theatrical Cut] Dub + Sub Rus

Ответить на тему
 
Автор Сообщение

user ®

Стаж: 7 лет 7 месяцев

Сообщений: 20008

Пост Пост: #1 от 01-Ноя-2013 22:20

[Цитировать]

Форсаж 6 / Fast & Furious 6
Страна: США
Жанр: боевик, триллер, драма, криминал
Год выпуска: 2013
Продолжительность: 02:10:06
Перевод: Профессиональный (дублированный)
Cубтитры: русские
Режиссер: Джастин Лин / Justin Lin
В ролях: Вин Дизель, Дуэйн Джонсон, Пол Уокер, Люк Эванс, Мишель Родригес, Джина Карано, Джордана Брюстер, Эльса Патаки, Гал Гадот, Тайрез Гибсон, Cанг Кенг, Лудакрис, Джо Таслим, Пол Блэкуэлл
Описание: После того как Доминик и Брайн побывали в Рио, где они ограбили и свергли империю вора в законе, их команда получила 100 миллионов, и наши герои оказались разбросаны по всему миру. Но их привычка вечно жить в бегах не даёт им покоя. Между тем, Хоббс отслеживал организацию смертельно опасных наёмников-водителей по двенадцати странам. Единственный способ остановить эту криминальную группу — это превзойти их на улицах, поэтому Хоббс просит Дома собрать его элитную команду в Лондоне. За это он обещает полное помилование для Доминика и его друзей, чтобы они смогли наконец вернуться домой к своей семье.
Исходник: не известен
Сэмпл: http://multi-up.com/918920
Качество видео: HDRip-AVC
Формат видео: MKV
Видео: MPEG4 Video (H264) 1024x436 23.98fps
Аудио: Dolby AC3 448kbps 48000Hz 6ch

MediaInfo

General
Complete name : D:\Форсаж 6.mkv
Format : Matroska
File size : 2.77 GiB
Duration : 2h 10mn
Overall bit rate : 3 043 Kbps
Movie name : -=LEONARDO=-
Encoded date : UTC 2013-09-14 20:44:59
Writing application : mkvmerge v5.0.1 ('Es ist Sommer') built on Oct 23 2011 00:46:40
Writing library : libebml v1.2.2 + libmatroska v1.3.0
Video
ID : 1
Format : AVC
Format/Info : Advanced Video Codec
Format profile : High@L4.1
Format settings, CABAC : Yes
Format settings, ReFrames : 9 frames
Muxing mode : Container profile=Unknown@4.1
Codec ID : V_MPEG4/ISO/AVC
Duration : 2h 10mn
Bit rate : 2 534 Kbps
Width : 1 024 pixels
Height : 436 pixels
Display aspect ratio : 2.35:1
Frame rate : 23.976 fps
Resolution : 8 bits
Colorimetry : 4:2:0
Scan type : Progressive
Bits/(Pixel*Frame) : 0.237
Stream size : 2.30 GiB (83%)
Writing library : x264 core 125 r2208 d9d2288
Encoding settings : cabac=1 / ref=9 / deblock=1:-3:-3 / analyse=0x3:0x133 / me=umh / subme=11 / psy=1 / psy_rd=1.00:0.25 / mixed_ref=1 / me_range=32 / chroma_me=1 / trellis=2 / 8x8dct=1 / cqm=0 / deadzone=6,6 / fast_pskip=0 / chroma_qp_offset=-4 / threads=12 / lookahead_threads=2 / sliced_threads=0 / nr=0 / decimate=0 / interlaced=0 / bluray_compat=0 / constrained_intra=0 / bframes=10 / b_pyramid=2 / b_adapt=2 / b_bias=0 / direct=1 / weightb=1 / open_gop=0 / weightp=2 / keyint=250 / keyint_min=23 / scenecut=40 / intra_refresh=0 / rc_lookahead=60 / rc=crf / mbtree=1 / crf=19.0 / qcomp=0.80 / qpmin=0 / qpmax=69 / qpstep=4 / ip_ratio=1.10 / aq=1:0.50
Audio
ID : 2
Format : AC-3
Format/Info : Audio Coding 3
Format_Settings_ModeExtension : CM (complete main)
Codec ID : A_AC3
Duration : 2h 10mn
Bit rate mode : Constant
Bit rate : 448 Kbps
Channel(s) : 6 channels
Channel positions : Front: L C R, Side: L R, LFE
Sampling rate : 48.0 KHz
Stream size : 417 MiB (15%)
Title : DUB
Language : Russian
Text #1
ID : 3
Format : UTF-8
Codec ID : S_TEXT/UTF8
Codec ID/Info : UTF-8 Plain Text
Title : Forced
Language : Russian
Text #2
ID : 4
Format : UTF-8
Codec ID : S_TEXT/UTF8
Codec ID/Info : UTF-8 Plain Text
Title : Full
Language : Russian
Text #3
ID : 5
Format : UTF-8
Codec ID : S_TEXT/UTF8
Codec ID/Info : UTF-8 Plain Text
Menu
00:00:00.000 : en:Chapter 01
00:04:21.010 : en:Chapter 02
00:10:19.118 : en:Chapter 03
00:15:35.267 : en:Chapter 04
00:19:18.574 : en:Chapter 05
00:24:32.721 : en:Chapter 06
00:30:23.404 : en:Chapter 07
00:36:28.477 : en:Chapter 08
00:43:43.954 : en:Chapter 09
00:50:21.810 : en:Chapter 10
00:56:24.964 : en:Chapter 11
01:04:07.843 : en:Chapter 12
01:09:28.080 : en:Chapter 13
01:18:27.244 : en:Chapter 14
01:24:54.964 : en:Chapter 15
01:34:07.475 : en:Chapter 16
01:41:02.347 : en:Chapter 17
01:47:42.706 : en:Chapter 18
01:56:52.880 : en:Chapter 19
02:01:38.958 : en:Chapter 20

Скриншот c названием фильма

Скриншоты




Скачать

Скачать торрент!

Как скачивать? · Что такое торрент? · Рейтинг и ограничения

Сайт не распространяет и не хранит электронные версии произведений, а лишь предоставляет доступ к создаваемому пользователями каталогу ссылок на торрент-файлы, которые содержат только списки хеш-сумм

[Профиль] [ЛС]
Показать сообщения:    
Ответить на тему

Текущее время: Сегодня 10:07

Часовой пояс: GMT + 4



Вы не можете начинать темы
Вы не можете отвечать на сообщения
Вы не можете редактировать свои сообщения
Вы не можете удалять свои сообщения
Вы не можете голосовать в опросах
Вы не можете прикреплять файлы к сообщениям
Вы не можете скачивать файлы