Наемный убийца / Bounty Killer (Генри Сэйн / Henry Saine) [2013, США, боевик, BDRip 720p] MVO + Original (Eng) + Sub (Eng)

Ответить на тему
 
Автор Сообщение

user ®

Стаж: 7 лет 7 месяцев

Сообщений: 20008

Пост Пост: #1 от 01-Ноя-2013 19:10

[Цитировать]

Наемный убийцаBounty Killer- Страна: США
Жанр: боевик
Год выпуска: 2013
Продолжительность: 01:32:40-Перевод: Профессиональный (многоголосый, закадровый)
Оригинальная аудиодорожка: английский
Субтитры: английские
Режиссер: Генри Сэйн / Henry Saine
В ролях: Мэттью Мэрсден, Кристанна Локен, Кристиан Питре, Барак Хардли, Абрахам Бенруби, Гэри Бьюзи, Беверли Д’Анджело, Ив, Кевин МакНэлли, Алекса Вега, Джолин Андерсен, Чести Баллестерос-Описание: Спустя двадцать лет после начала Корпоративной Мировой войны, некогда цветущая и плодородная планета превратилась в выжженную пустыню, усеянную полуразрушенными останками людских поселений. Среди непрекращающейся тьмы и разрухи на свет появился Совет Девяти Роз, призванный уничтожить всё, что хоть отдалённо напоминает о корпорациях. Так началась эпоха наёмных убийц, охотящихся за «белыми воротничками».-


MPAA: R - Лицам до 17 лет обязательно присутствие взрослого-

Доп. Информация

Сценарий: Джейсон Додсон / Jason Dodson, Колин Эбелинг / Colin Ebeling, Генри Сэйн / Henry Saine
Продюсер: Колин Эбелинг / Colin Ebeling, Джейсон Неттер / Jason Netter, Генри Сэйн / Henry Saine, Дес Кэри / Des Carey, Тревор Джонс / Trevor Jones
Оператор: Дэвид Конли / David Conley
Композитор: Грег Эдмонсон / Greg Edmonson
Мировая премьера: 5 апреля 2013
Релиз на DVD: 24 сентября 2013,
«Парадиз / Активижен»,
-Качество: BDRip 720p
Контейнер: MKV
Видео: AVC, 1280x532 (2.40:1), 4251 kbps, 23,976 fps, 0,260 bpp
Аудио №1: русский / AC3 / 2.0 / 48 kHz / 192 kbps / 16 bit ||
Аудио №2: английский / DTS / 5.1 / 48 kHz / 1510 kbps / 16 bit
Формат субтитров: softsub (SRT)
Навигация по главам: есть-

Media Info

General
Unique ID : 246183553129756700548208137426929125553 (0xB9353A4928D0FB1F81A05E7CC02308B1)
Complete name : G:\Bounty.Killer.2013.BDRip.720p.mkv
Format : Matroska
Format version : Version 2
File size : 3.93 GiB
Duration : 1h 32mn
Overall bit rate : 6 074 Kbps
Encoded date : UTC 2013-10-31 16:02:51
Writing application : mkvmerge v5.8.0 ('No Sleep / Pillow') built on Sep 2 2012 15:37:04
Writing library : libebml v1.2.3 + libmatroska v1.3.0
Video
ID : 1
Format : AVC
Format/Info : Advanced Video Codec
Format profile : High@L4.1
Format settings, CABAC : Yes
Format settings, ReFrames : 12 frames
Codec ID : V_MPEG4/ISO/AVC
Duration : 1h 32mn
Bit rate : 4 251 Kbps
Width : 1 280 pixels
Height : 532 pixels
Display aspect ratio : 2.40:1
Frame rate : 23.976 fps
Color space : YUV
Chroma subsampling : 4:2:0
Bit depth : 8 bits
Scan type : Progressive
Bits/(Pixel*Frame) : 0.260
Stream size : 2.75 GiB (70%)
Writing library : x264 core 138 r2358 9e941d1
Encoding settings : cabac=1 / ref=12 / deblock=1:-1:-1 / analyse=0x3:0x113 / me=umh / subme=10 / psy=1 / psy_rd=1.00:0.15 / mixed_ref=1 / me_range=48 / chroma_me=1 / trellis=2 / 8x8dct=1 / cqm=0 / deadzone=21,11 / fast_pskip=1 / chroma_qp_offset=-3 / threads=12 / lookahead_threads=3 / sliced_threads=0 / nr=0 / decimate=1 / interlaced=0 / bluray_compat=0 / constrained_intra=0 / bframes=10 / b_pyramid=2 / b_adapt=2 / b_bias=0 / direct=3 / weightb=1 / open_gop=0 / weightp=2 / keyint=250 / keyint_min=24 / scenecut=40 / intra_refresh=0 / rc_lookahead=40 / rc=crf / mbtree=0 / crf=17.0 / qcomp=0.60 / qpmin=10 / qpmax=51 / qpstep=4 / vbv_maxrate=50000 / vbv_bufsize=62500 / crf_max=0.0 / nal_hrd=none / ip_ratio=1.40 / pb_ratio=1.30 / aq=2:1.00
Language : English
Default : Yes
Forced : No
Audio #1
ID : 2
Format : AC-3
Format/Info : Audio Coding 3
Mode extension : CM (complete main)
Codec ID : A_AC3
Duration : 1h 32mn
Bit rate mode : Constant
Bit rate : 192 Kbps
Channel(s) : 2 channels
Channel positions : Front: L R
Sampling rate : 48.0 KHz
Bit depth : 16 bits
Compression mode : Lossy
Stream size : 127 MiB (3%)
Title : Профессиональный (многоголосый закадровый)
Language : Russian
Default : Yes
Forced : No
Audio #2
ID : 3
Format : DTS
Format/Info : Digital Theater Systems
Codec ID : A_DTS
Duration : 1h 32mn
Bit rate mode : Constant
Bit rate : 1 510 Kbps
Channel(s) : 6 channels
Channel positions : Front: L C R, Side: L R, LFE
Sampling rate : 48.0 KHz
Bit depth : 16 bits
Compression mode : Lossy
Stream size : 1 001 MiB (25%)
Title : English
Language : English
Default : No
Forced : No
Text
ID : 4
Format : UTF-8
Codec ID : S_TEXT/UTF8
Codec ID/Info : UTF-8 Plain Text
Language : English
Default : No
Forced : No
Menu
00:00:00.000 : :Chapter 01
00:07:40.335 : :Chapter 02
00:16:59.936 : :Chapter 03
00:25:05.504 : :Chapter 04
00:32:23.942 : :Chapter 05
00:39:07.178 : :Chapter 06
00:49:42.730 : :Chapter 07
00:56:13.786 : :Chapter 08
01:03:16.126 : :Chapter 09
01:13:51.260 : :Chapter 10
01:20:00.921 : :Chapter 11
01:26:49.121 : :Chapter 12

х264

x264 [info]: frame I:1301 Avg QP:15.54 size: 93664
x264 [info]: frame P:36257 Avg QP:16.81 size: 41422
x264 [info]: frame B:95750 Avg QP:19.33 size: 14765
x264 [info]: consecutive B-frames: 5.7% 7.0% 15.2% 19.7% 12.3% 35.4% 2.4% 0.5% 0.9% 0.3% 0.5%
x264 [info]: mb I I16..4: 9.9% 68.2% 22.0%
x264 [info]: mb P I16..4: 2.7% 21.0% 3.9% P16..4: 29.5% 24.1% 12.0% 0.0% 0.0% skip: 6.7%
x264 [info]: mb B I16..4: 0.3% 2.2% 0.6% B16..8: 38.1% 14.4% 4.0% direct: 7.8% skip:32.5% L0:41.0% L1:44.2% BI:14.8%
x264 [info]: 8x8 transform intra:74.4% inter:60.6%
x264 [info]: direct mvs spatial:99.8% temporal:0.2%
x264 [info]: coded y,uvDC,uvAC intra: 83.7% 87.0% 75.3% inter: 29.9% 31.5% 11.3%
x264 [info]: i16 v,h,dc,p: 22% 12% 18% 47%
x264 [info]: i8 v,h,dc,ddl,ddr,vr,hd,vl,hu: 14% 11% 11% 8% 11% 11% 11% 11% 12%
x264 [info]: i4 v,h,dc,ddl,ddr,vr,hd,vl,hu: 29% 8% 5% 7% 11% 11% 10% 8% 9%
x264 [info]: i8c dc,h,v,p: 44% 22% 18% 16%
x264 [info]: Weighted P-Frames: Y:6.0% UV:4.7%
x264 [info]: ref P L0: 51.8% 11.9% 15.8% 5.4% 4.2% 2.7% 2.4% 1.3% 1.3% 1.0% 1.0% 0.9% 0.3% 0.0%
x264 [info]: ref B L0: 77.8% 10.5% 4.4% 2.3% 1.5% 1.2% 0.9% 0.6% 0.5% 0.3% 0.2%
x264 [info]: ref B L1: 94.2% 5.8%
x264 [info]: kb/s:4370.45
x264 [total]: encoded 133308 frames, 10.44 fps, 4370.45 kb/s

Скриншоты

Скачать

Скачать торрент!

Как скачивать? · Что такое торрент? · Рейтинг и ограничения

Сайт не распространяет и не хранит электронные версии произведений, а лишь предоставляет доступ к создаваемому пользователями каталогу ссылок на торрент-файлы, которые содержат только списки хеш-сумм

[Профиль] [ЛС]
Показать сообщения:    
Ответить на тему

Текущее время: Сегодня 02:07

Часовой пояс: GMT + 4



Вы не можете начинать темы
Вы не можете отвечать на сообщения
Вы не можете редактировать свои сообщения
Вы не можете удалять свои сообщения
Вы не можете голосовать в опросах
Вы не можете прикреплять файлы к сообщениям
Вы не можете скачивать файлы