Странный Томас / Odd Thomas (Стивен Соммерс / Stephen Sommers) [2013, США, триллер, детектив, фэнтези, BDRip 1080p] MVO + Original (Eng)

Ответить на тему
 
Автор Сообщение

user ®

Стаж: 7 лет 7 месяцев

Сообщений: 20008

Пост Пост: #1 от 01-Ноя-2013 19:10

[Цитировать]

Странный ТомасOdd Thomas- Страна: США
Жанр: триллер, детектив, фэнтези, боевик
Год выпуска: 2013
Продолжительность: 01:36:40-Перевод: Профессиональный (многоголосый, закадровый)
Оригинальная аудиодорожка: английский
Субтитры: нет
Режиссер: Стивен Соммерс / Stephen Sommers
В ролях: Антон Ельчин, Эддисон Тимлин, Гугу Мбата-Роу, Нико Торторелла, Пэттон Освальт, Уиллем Дефо, Эшли Соммерс, Леонор Варела, Мэттью Пейдж, Кэйси Мессер, Барни Леннинг, Кайл МакКивер-Описание: Главный герой наделен даром (или проклятием) видеть мертвецов. Каждый их визит становится началом очередной охоты на убийцу - призраки ведут Томаса на помощь тем, кому еще рано расставаться с жизнью. О способности героя знают только самые близкие друзья и любимая девушка. С их помощью ему предстоит отвести большую беду от маленького городка в центре пустыни Мохаве.-

-

Доп. Информация

Сценарий: Стивен Соммерс / Stephen Sommers, Дин Р. Кунц / Dean R. Koontz
Продюсер: Ховард Каплан / Howard Kaplan, Стивен Соммерс / Stephen Sommers, Джон Балдеччи / John Baldecchi, Майкл Арата / Michael Arata, Клифф Леннинг / Cliff Lanning
Оператор: Митчелл Амундсен / Mitchell Amundsen
Композитор: Джон Свайхарт / John Swihart
Бюджет: $27 000 000
Мировая премьера: 6 апреля 2013
-Качество: BDRip 1080p
Контейнер: MKV
Видео: AVC, 1920x800 (2.40:1), 9074 kbps, 23,976 fps, 0,246 bpp
Аудио №1: русский / AC3 / 5.1 / 48 kHz / 384 kbps / 16 bit ||
Аудио №2: английский / DTS / 5.1 / 48 kHz / 1510 kbps / 24 bit-

Знаете ли Вы, что...

  • Когда Томас покидает больницу, на одном из знаков видна надпись «Мы верим в Странного» («In Odd We Trust»). Это название графической новеллы по циклу книг «Странный Томас», которая лежит в основе фильма.
  • Съемки приостанавливались на несколько недель из-за финансовых проблем.
  • Лили Коллинз, Эмма Робертс, Кэт Деннингс и Портия Даблдэй рассматривались на роль Шторми. Коллинз была фавориткой, но отказалась, чтобы сняться в фильме «Белоснежка: Месть гномов» (2012).
  • Тим Роббинс рассматривался на роль Портера.
  • Шон Пи Дидди Комбс и Фифти Сент первоначально рассматривались на роль Шамуса.
  • Изначально на роль Боба рассматривался Кевин Дж. О`Коннор.
  • еще 3 факта

Media Info

General
Unique ID : 241131112045900720478644991695469211642 (0xB56829B53528E885BCBAC145163CEFFA)
Complete name : G:\Odd.Thomas.2013.BDRip.1080p.mkv
Format : Matroska
Format version : Version 2
File size : 7.56 GiB
Duration : 1h 36mn
Overall bit rate : 11.2 Mbps
Encoded date : UTC 2013-11-01 14:05:08
Writing application : mkvmerge v5.8.0 ('No Sleep / Pillow') built on Sep 2 2012 15:37:04
Writing library : libebml v1.2.3 + libmatroska v1.3.0
Video
ID : 1
Format : AVC
Format/Info : Advanced Video Codec
Format profile : High@L4.1
Format settings, CABAC : Yes
Format settings, ReFrames : 5 frames
Codec ID : V_MPEG4/ISO/AVC
Duration : 1h 36mn
Bit rate : 9 075 Kbps
Width : 1 920 pixels
Height : 800 pixels
Display aspect ratio : 2.40:1
Frame rate : 23.976 fps
Color space : YUV
Chroma subsampling : 4:2:0
Bit depth : 8 bits
Scan type : Progressive
Bits/(Pixel*Frame) : 0.246
Stream size : 6.13 GiB (81%)
Writing library : x264 core 138 r2358 9e941d1
Encoding settings : cabac=1 / ref=5 / deblock=1:-1:-1 / analyse=0x3:0x113 / me=umh / subme=10 / psy=1 / psy_rd=1.00:0.15 / mixed_ref=1 / me_range=48 / chroma_me=1 / trellis=2 / 8x8dct=1 / cqm=0 / deadzone=21,11 / fast_pskip=1 / chroma_qp_offset=-3 / threads=12 / lookahead_threads=3 / sliced_threads=0 / nr=0 / decimate=1 / interlaced=0 / bluray_compat=0 / constrained_intra=0 / bframes=11 / b_pyramid=2 / b_adapt=2 / b_bias=0 / direct=3 / weightb=1 / open_gop=0 / weightp=2 / keyint=250 / keyint_min=24 / scenecut=40 / intra_refresh=0 / rc_lookahead=40 / rc=crf / mbtree=0 / crf=18.0 / qcomp=0.60 / qpmin=10 / qpmax=51 / qpstep=4 / vbv_maxrate=50000 / vbv_bufsize=62500 / crf_max=0.0 / nal_hrd=none / ip_ratio=1.40 / pb_ratio=1.30 / aq=2:1.00
Language : English
Default : Yes
Forced : No
Audio #1
ID : 2
Format : AC-3
Format/Info : Audio Coding 3
Mode extension : CM (complete main)
Codec ID : A_AC3
Duration : 1h 36mn
Bit rate mode : Constant
Bit rate : 384 Kbps
Channel(s) : 6 channels
Channel positions : Front: L C R, Side: L R, LFE
Sampling rate : 48.0 KHz
Bit depth : 16 bits
Compression mode : Lossy
Stream size : 266 MiB (3%)
Language : Russian
Default : Yes
Forced : No
Audio #2
ID : 3
Format : DTS
Format/Info : Digital Theater Systems
Codec ID : A_DTS
Duration : 1h 36mn
Bit rate mode : Constant
Bit rate : 1 510 Kbps
Channel(s) : 6 channels
Channel positions : Front: L C R, Side: L R, LFE
Sampling rate : 48.0 KHz
Bit depth : 24 bits
Compression mode : Lossy
Stream size : 1.02 GiB (13%)
Title : English
Language : English
Default : No
Forced : No

х264

x264 [info]: frame I:1081 Avg QP:15.70 size:202969
x264 [info]: frame P:33651 Avg QP:17.00 size: 90113
x264 [info]: frame B:104348 Avg QP:18.82 size: 33432
x264 [info]: consecutive B-frames: 2.9% 4.4% 9.0% 32.3% 17.5% 24.6% 5.1% 1.8% 0.6% 0.3% 0.4% 1.0%
x264 [info]: mb I I16..4: 20.0% 62.5% 17.5%
x264 [info]: mb P I16..4: 5.6% 19.7% 3.3% P16..4: 31.1% 23.0% 10.5% 0.0% 0.0% skip: 6.7%
x264 [info]: mb B I16..4: 0.5% 2.1% 0.4% B16..8: 42.4% 11.0% 2.6% direct:10.3% skip:30.6% L0:41.7% L1:43.8% BI:14.5%
x264 [info]: 8x8 transform intra:68.9% inter:47.3%
x264 [info]: direct mvs spatial:100.0% temporal:0.0%
x264 [info]: coded y,uvDC,uvAC intra: 91.9% 88.7% 73.4% inter: 31.4% 34.3% 13.5%
x264 [info]: i16 v,h,dc,p: 13% 5% 35% 46%
x264 [info]: i8 v,h,dc,ddl,ddr,vr,hd,vl,hu: 12% 13% 12% 8% 10% 10% 12% 11% 13%
x264 [info]: i4 v,h,dc,ddl,ddr,vr,hd,vl,hu: 10% 11% 5% 8% 14% 13% 14% 10% 14%
x264 [info]: i8c dc,h,v,p: 48% 20% 19% 13%
x264 [info]: Weighted P-Frames: Y:2.5% UV:2.0%
x264 [info]: ref P L0: 50.7% 9.7% 23.7% 7.7% 7.5% 0.7% 0.0%
x264 [info]: ref B L0: 77.2% 16.7% 4.6% 1.5%
x264 [info]: ref B L1: 93.6% 6.4%
x264 [info]: kb/s:9295.78
x264 [total]: encoded 139080 frames, 7.51 fps, 9295.78 kb/s

Скриншоты

Скачать

Скачать торрент!

Как скачивать? · Что такое торрент? · Рейтинг и ограничения

Сайт не распространяет и не хранит электронные версии произведений, а лишь предоставляет доступ к создаваемому пользователями каталогу ссылок на торрент-файлы, которые содержат только списки хеш-сумм

[Профиль] [ЛС]
Показать сообщения:    
Ответить на тему

Текущее время: Сегодня 20:17

Часовой пояс: GMT + 4



Вы не можете начинать темы
Вы не можете отвечать на сообщения
Вы не можете редактировать свои сообщения
Вы не можете удалять свои сообщения
Вы не можете голосовать в опросах
Вы не можете прикреплять файлы к сообщениям
Вы не можете скачивать файлы