Река (Алексей Балабанов) [2002, Драма, TVRip]

Ответить на тему
 
Автор Сообщение

user ®

Стаж: 7 лет 7 месяцев

Сообщений: 20008

Пост Пост: #1 от 01-Ноя-2013 08:50

[Цитировать]

Р Е К А-- Жанр: Драма
Год выпуска: 2002
Продолжительность: 00:47:46-Режиссёр: Алексей Балабанов-В ролях: Туйара Свинобоева — Мергень , Михаил Скрябин — Джанга , Василий Борисов — Кыргелей , Анна Флегонтова — Анчик, Мария Кычкина — Бытерхай, Мария Канаева — Кутуяхсыт, Спартак Федотов — Салбан , Михаил Семёнов — князь , Геннадий Турантаев — якут-Описание: Конец XIX века, крохотная колония прокаженных в глухой якутской тайге. Случайно попавшая сюда здоровая девушка — воровка и охотница — влюбляется в одного из больных, молодого еще парня, и ждет от него ребенка. Но внезапно к нему с «большой земли» приезжает жена, и в этом странном любовном треугольнике назревает трагедия…-Доп. информация : Фильм Алексея Балабанова по роману польского писателя Вацлава Серашевского был отснят более чем наполовину. Однако после автокатастрофы 21 ноября 2000 года, в которой погибла исполнительница главной роли Туйара Свинобоева, съемки были остановлены. Лишь год спустя режиссер смонтировал отснятый материал и прокомментировал за кадром пропущенные сцены.--Сэмпл: http://multi-up.com/918938
Качество видео: TVRip
Формат видео: AVI
Видео: DivX 5 640x480 25fps
Аудио: MP3 44100Hz stereo 95kbps-
-

MediaInfo

General
Complete name : E:\reka_[tfile].avi
Format : AVI
Format/Info : Audio Video Interleave
File size : 461 MiB
Duration : 47mn 46s
Overall bit rate : 1 349 Kbps
Movie name : Река
Comment : Rip by Grob /forum.xvid.ru/ 10.05.2007
Video
ID : 0
Format : MPEG-4 Visual
Format settings, BVOP : Yes
Format settings, QPel : No
Format settings, GMC : No warppoints
Format settings, Matrix : Default (H.263)
Codec ID : DX50
Codec ID/Hint : DivX 5
Duration : 47mn 46s
Bit rate : 1 244 Kbps
Width : 640 pixels
Height : 480 pixels
Display aspect ratio : 4:3
Frame rate : 25.000 fps
Color space : YUV
Chroma subsampling : 4:2:0
Bit depth : 8 bits
Scan type : Progressive
Compression mode : Lossy
Bits/(Pixel*Frame) : 0.162
Stream size : 425 MiB (92%)
Writing library : DivX 6.2.2 (UTC 2006-04-26)
Audio
ID : 1
Format : MPEG Audio
Format version : Version 1
Format profile : Layer 3
Mode : Joint stereo
Mode extension : Intensity Stereo + MS Stereo
Codec ID : 55
Codec ID/Hint : MP3
Duration : 47mn 46s
Bit rate mode : Constant
Bit rate : 96.0 Kbps
Channel count : 2 channels
Sampling rate : 44.1 KHz
Compression mode : Lossy
Delay relative to video : 1ms
Stream size : 32.8 MiB (7%)
Alignment : Split accross interleaves
Interleave, duration : 40 ms (1.00 video frame)
Interleave, preload duration : 500 ms

Скриншот c названием фильма

Скриншоты

Скачать

Скачать торрент!

Как скачивать? · Что такое торрент? · Рейтинг и ограничения

Сайт не распространяет и не хранит электронные версии произведений, а лишь предоставляет доступ к создаваемому пользователями каталогу ссылок на торрент-файлы, которые содержат только списки хеш-сумм

[Профиль] [ЛС]
Показать сообщения:    
Ответить на тему

Текущее время: Сегодня 21:59

Часовой пояс: GMT + 4



Вы не можете начинать темы
Вы не можете отвечать на сообщения
Вы не можете редактировать свои сообщения
Вы не можете удалять свои сообщения
Вы не можете голосовать в опросах
Вы не можете прикреплять файлы к сообщениям
Вы не можете скачивать файлы