Лавлэйс / Lovelace (Роб Эпштейн / Rob Epstein, Джеффри Фридман / Jeffrey Friedman) [2013, США, драма, биография, HDRip] Dub

Ответить на тему
 
Автор Сообщение

user ®

Стаж: 7 лет 7 месяцев

Сообщений: 20008

Пост Пост: #1 от 01-Ноя-2013 02:30

[Цитировать]

Лавлэйс / Lovelace
Страна: США
Жанр: драма, биография
Год выпуска: 2013
Продолжительность: 01:32:47
Перевод: Профессиональный (дублированный) лицензия
Cубтитры: нет
Режиссер: Роб Эпштейн / Rob Epstein, Джеффри Фридман / Jeffrey Friedman
В ролях: Аманда Сайфред, Питер Сарсгаард, Роберт Патрик, Шэрон Стоун, Джуно Темпл, Адам Броди, Бобби Каннавале, Крис Нот, Эрик Робертс, Джеймс Франко
Описание: Биография самой известной порноактрисы Линды Лавлейс. Чтобы заработать подобную славу, ей нужно было сыграть только в одном фильме — «Глубокая глотка». Всю свою жизнь после этого она посвятила борьбе за права женщин.
Фильм состоит из двух частей, хронологически повторяющих друг друга. Первая — «прилизанная», почти глянцевая история симпатичной девушки, «любившей секс» и без особых усилий ставшей культовой порнозвездой. Вторая — то, что оставалось «за кадром» в первой части: сексуальное насилие и рукоприкладство со стороны мужа Линды, умудрявшегося продавать «на ночь» свою жену даже после громкого успеха «Глубокой глотки», проблемы с алкоголем и наркотиками, сексуальные домогательства медиамагнатов, политиков и работников порноиндустрии...
Сэмпл: http://multi-up.com/918955
Качество видео: HDRip
Формат видео: AVI
Видео: XviD, 720x384, 23.976 fps, ~1862 kbps
Аудио: AC3, 48000Hz, 6ch, ~384 kbps

MediaInfo

Общее
Полное имя : D:\Lovelace_2013.HDRip.avi
Формат : AVI
Формат/Информация : Audio Video Interleave
Размер файла : 1,46 Гбайт
Продолжительность : 1 ч. 32 м.
Общий поток : 2255 Кбит/сек
Программа кодирования : VirtualDubMod 1.5.10.2 (build 2540/release)
Библиотека кодирования : VirtualDubMod build 2540/release
Видео
Идентификатор : 0
Формат : MPEG-4 Visual
Профиль формата : Advanced Simple@L5
Параметр BVOP формата : 2
Параметр QPel формата : Нет
Параметр GMC формата : Без точки перехода
Параметр матрицы формата : Default (MPEG)
Идентификатор кодека : XVID
Идентификатор кодека/Подсказка : XviD
Продолжительность : 1 ч. 32 м.
Битрейт : 1862 Кбит/сек
Ширина : 720 пикселей
Высота : 384 пикселя
Соотношение сторон : 1,85:1
Частота кадров : 23,976 кадра/сек
Цветовое пространство : YUV
Субдискретизация насыщенности : 4:2:0
Битовая глубина : 8 бит
Тип развёртки : Прогрессивная
Метод сжатия : С потерями
Бит/(Пиксели*Кадры) : 0.281
Размер потока : 1,21 Гбайт (83%)
Библиотека кодирования : XviD 1.2.1 (UTC 2008-12-04)
Аудио
Идентификатор : 1
Формат : AC-3
Формат/Информация : Audio Coding 3
Расширение режима : CM (complete main)
Параметр Endianness формата : Big
Идентификатор кодека : 2000
Продолжительность : 1 ч. 32 м.
Вид битрейта : Постоянный
Битрейт : 384 Кбит/сек
Каналы : 6 каналов
Расположение каналов : Front: L C R, Side: L R, LFE
Частота : 48,0 КГц
Битовая глубина : 16 бит
Метод сжатия : С потерями
Размер потока : 255 Мбайт (17%)
Выравнивание : Разделение по промежуткам
Продолжительность промежутка : 42 мс. (1,00 видеокадр)
Время предзагрузки промежутка : 500 мс.

Скриншот c названием фильма

Скриншоты

Скачать

Скачать торрент!

Как скачивать? · Что такое торрент? · Рейтинг и ограничения

Сайт не распространяет и не хранит электронные версии произведений, а лишь предоставляет доступ к создаваемому пользователями каталогу ссылок на торрент-файлы, которые содержат только списки хеш-сумм

[Профиль] [ЛС]
Показать сообщения:    
Ответить на тему

Текущее время: Сегодня 07:00

Часовой пояс: GMT + 4



Вы не можете начинать темы
Вы не можете отвечать на сообщения
Вы не можете редактировать свои сообщения
Вы не можете удалять свои сообщения
Вы не можете голосовать в опросах
Вы не можете прикреплять файлы к сообщениям
Вы не можете скачивать файлы