Плюс один / +1 / +1 (Дэннис Илиадис / Dennis Iliadis) [2013, США, триллер, фантастика, WEB-DLRip] MVO

Ответить на тему
 
Автор Сообщение

user ®

Стаж: 7 лет 7 месяцев

Сообщений: 20008

Пост Пост: #1 от 01-Ноя-2013 02:30

[Цитировать]

+1+1«Этого хотят все»- Страна: США
Жанр: триллер, фантастика
Год выпуска: 2013
Продолжительность: 01:32:16-Перевод: Профессиональный (многоголосый, закадровый)
Субтитры: нет
Режиссер: Дэннис Илиадис / Dennis Iliadis
В ролях: Риз Уэйкфилд, Логан Миллер, Эшли Хиншоу, Сюзанн Денджел, Коллин Денджел, Натали Холл, Роэн Кимал, Адам Дэвид Томпсон, Рональд Огден, Бернард Джонс, Брэд Миллс, Эйприл Биллингсли-Описание: Трое друзей из колледжа отправляются на главную вечеринку десятилетия. Каждый ищет там что-то свое: любовь, секс или новые знакомства. Но праздник превращается в хаос, когда по соседству с домом, где все веселятся, падает метеорит.-

-

Доп. Информация

Сценарий: Билл Гулло / Bill Gullo, Дэннис Илиадис / Dennis Iliadis
Продюсер: Тим Перелл / Tim Perell, Гай Ботам / Guy Botham, Бекки Глупчински / Becky Glupczynski, Томас Ниттманн / Thomas Nittmann, Эдсон Уильямс / Edson Williams
Оператор: Михай Малаймер мл. / Mihai Malaimare Jr.
Композитор: Нэйтан Ларсон / Nathan Larson
Сборы в России: $88 146
Мировая премьера: 10 марта 2013
-Качество: WEB-DLRip
Контейнер: AVI
Видео: 688x288 (2.39:1), 23.976 fps, XviD build 65 ~955 kbps avg, 0.20 bit/pixel
Аудио: MP3 / 2.0 / 48 kHz / 128 kbps /-

Media Info

Общее
Полное имя : G:\Plus.1.2013.P.WEB-DLRip.avi
Формат : AVI
Формат/Информация : Audio Video Interleave
Размер файла : 752 Мбайт
Продолжительность : 1 ч. 36 м.
Общий поток : 1093 Кбит/сек
Программа кодирования : VirtualDubModRus 1.5.10.2 (build 2542/release)
Библиотека кодирования : VirtualDubMod build 2542/release
Видео
Идентификатор : 0
Формат : MPEG-4 Visual
Профиль формата : Advanced Simple@L5
Параметр BVOP формата : 1
Параметр QPel формата : Нет
Параметр GMC формата : Без точки перехода
Параметр матрицы формата : Выборочная
Идентификатор кодека : XVID
Идентификатор кодека/Подсказка : XviD
Продолжительность : 1 ч. 36 м.
Битрейт : 956 Кбит/сек
Ширина : 688 пикселей
Высота : 288 пикселей
Соотношение сторон : 2,40:1
Частота кадров : 23,976 кадра/сек
Цветовое пространство : YUV
Субдискретизация насыщенности : 4:2:0
Битовая глубина : 8 бит
Тип развёртки : Прогрессивная
Метод сжатия : С потерями
Бит/(Пиксели*Кадры) : 0.201
Размер потока : 658 Мбайт (87%)
Библиотека кодирования : XviD 65
Аудио
Идентификатор : 1
Формат : MPEG Audio
Версия формата : Version 1
Профиль формата : Layer 3
Режим : Joint stereo
Идентификатор кодека : 55
Идентификатор кодека/Подсказка : MP3
Продолжительность : 1 ч. 36 м.
Вид битрейта : Постоянный
Битрейт : 128 Кбит/сек
Каналы : 2 канала
Частота : 48,0 КГц
Метод сжатия : С потерями
Размер потока : 88,1 Мбайт (12%)
Выравнивание : Соединение по промежуткам
Продолжительность промежутка : 42 мс. (1,00 видеокадр)
Время предзагрузки промежутка : 504 мс.
Библиотека кодирования : LAME3.99r
Настройки программы : -m j -V 4 -q 2 -lowpass 17 -b 128

Скриншот с названием фильма

Скриншоты

Скачать

Скачать торрент!

Как скачивать? · Что такое торрент? · Рейтинг и ограничения

Сайт не распространяет и не хранит электронные версии произведений, а лишь предоставляет доступ к создаваемому пользователями каталогу ссылок на торрент-файлы, которые содержат только списки хеш-сумм

[Профиль] [ЛС]
Показать сообщения:    
Ответить на тему

Текущее время: Сегодня 16:27

Часовой пояс: GMT + 4



Вы не можете начинать темы
Вы не можете отвечать на сообщения
Вы не можете редактировать свои сообщения
Вы не можете удалять свои сообщения
Вы не можете голосовать в опросах
Вы не можете прикреплять файлы к сообщениям
Вы не можете скачивать файлы