Канун Дня всех святых / All Hallows\' Eve (Дэмиен Леоне / Damien Leone) [2013, США, ужасы, WEB-DL 720p] DVO (DeadSno & den904) + Sub Eng + Original Eng

Ответить на тему
 
Автор Сообщение

user ®

Стаж: 7 лет 7 месяцев

Сообщений: 20008

Пост Пост: #1 от 31-Окт-2013 23:20

[Цитировать]

Канун Дня Всех Святых
All Hallows' Eve
--Страна: США
Жанр: ужасы
Год выпуска: 2013
Продолжительность: 01:22:55--Перевод: Любительский (двухголосый закадровый) DeadSno & den904
Cубтитры: английские
Оригинальная аудиодорожка: английская--Режиссер: Дэмиен Леоне / Damien Leone--В ролях: Кэти Магвайр, Майк Джаннелли, Катрин А. Каллахан, Мари Мэйсер, Кайла Лиан, Кристин Евангелиста, Робин Керр, Брэндон Деспейн, Майкл Хмель--Описание: Двое детей, оставленных своими родителями справлять Хэллоуин с подругой их матери, находят в мешке с конфетами старую видеокассету. На кассете записан фильм ужасов... очень странный фильм ужасов, который прорывается в их реальность...
--Релиз:
Озвучивание: любительское (двухголосое) [DeadSno & den904]
Перевод на русский язык [Antonio]
Работа со звуком [КОЛОБОК]--Сэмпл
Тип релиза: WEB-DL 720p [HD4FUN] Сохранены оригинальные чаптеры
Контейнер: MKV
Видео: MPEG4 Video (H264) 1280x540 23.976fps 3776Kbps
Аудио: Dolby AC3 48000Hz stereo 192kbps (DeadSno & den904)
Аудио 2: Dolby AC3 48000Hz 6ch 384kbps (eng)--

MediaInfo

General
Unique ID                      : 190221355807534168900194860923053626894 (0x8F1B4CEEF4878ACAA9E5EB72A5C7560E)
Complete name                  : F:\TORRENTS\All.Hallows.Eve.2013.WEB-DL.720p.mkv
Format                         : Matroska
Format version                 : Version 4 / Version 2
File size                      : 2.57 GiB
Duration                       : 1h 22mn
Overall bit rate               : 4 440 Kbps
Encoded date                   : UTC 2013-10-30 21:32:42
Writing application            : mkvmerge v6.5.0 ('Isn't she lovely') built on Oct 20 2013 12:50:05
Writing library                : libebml v1.3.0 + libmatroska v1.4.1
Video
ID                             : 1
Format                         : AVC
Format/Info                    : Advanced Video Codec
Format profile                 : Main@L3.1
Format settings, CABAC         : No
Format settings, ReFrames      : 2 frames
Codec ID                       : V_MPEG4/ISO/AVC
Duration                       : 1h 22mn
Bit rate                       : 3 776 Kbps
Width                          : 1 280 pixels
Height                         : 540 pixels
Display aspect ratio           : 2.40:1
Frame rate mode                : Constant
Frame rate                     : 23.976 fps
Color space                    : YUV
Chroma subsampling             : 4:2:0
Bit depth                      : 8 bits
Scan type                      : Progressive
Bits/(Pixel*Frame)             : 0.228
Stream size                    : 2.19 GiB (85%)
Language                       : English
Default                        : Yes
Forced                         : No
Color primaries                : BT.709
Transfer characteristics       : BT.709
Matrix coefficients            : BT.709
Audio #1
ID                             : 2
Format                         : AC-3
Format/Info                    : Audio Coding 3
Mode extension                 : CM (complete main)
Format settings, Endianness    : Big
Codec ID                       : A_AC3
Duration                       : 1h 22mn
Bit rate mode                  : Constant
Bit rate                       : 192 Kbps
Channel count                  : 2 channels
Channel positions              : Front: L R
Sampling rate                  : 48.0 KHz
Bit depth                      : 16 bits
Compression mode               : Lossy
Stream size                    : 114 MiB (4%)
Title                          : den904 & DeadSno
Language                       : Russian
Default                        : Yes
Forced                         : Yes
Audio #2
ID                             : 3
Format                         : AC-3
Format/Info                    : Audio Coding 3
Mode extension                 : CM (complete main)
Format settings, Endianness    : Big
Codec ID                       : A_AC3
Duration                       : 1h 22mn
Bit rate mode                  : Constant
Bit rate                       : 384 Kbps
Channel count                  : 6 channels
Channel positions              : Front: L C R, Side: L R, LFE
Sampling rate                  : 48.0 KHz
Bit depth                      : 16 bits
Compression mode               : Lossy
Stream size                    : 228 MiB (9%)
Language                       : English
Default                        : No
Forced                         : No
Text
ID                             : 4
Format                         : UTF-8
Codec ID                       : S_TEXT/UTF8
Codec ID/Info                  : UTF-8 Plain Text
Language                       : English
Default                        : No
Forced                         : No
Menu
00:00:00.000                   : en:Titles
00:02:11.000                   : en:VHS
00:07:47.000                   : en:Realmsville
00:24:05.000                   : en:Bedtime
00:33:35.000                   : en:Horrible Face
00:54:19.000                   : en:Art the Clown
01:13:21.000                   : en:Reality TV
01:18:39.000                   : en:Credits

Скриншоты

-

-
-
Скачать

Скачать торрент!

Как скачивать? · Что такое торрент? · Рейтинг и ограничения

Сайт не распространяет и не хранит электронные версии произведений, а лишь предоставляет доступ к создаваемому пользователями каталогу ссылок на торрент-файлы, которые содержат только списки хеш-сумм

[Профиль] [ЛС]
Показать сообщения:    
Ответить на тему

Текущее время: Сегодня 22:34

Часовой пояс: GMT + 4



Вы не можете начинать темы
Вы не можете отвечать на сообщения
Вы не можете редактировать свои сообщения
Вы не можете удалять свои сообщения
Вы не можете голосовать в опросах
Вы не можете прикреплять файлы к сообщениям
Вы не можете скачивать файлы