Лимб / Haunter (Винченцо Натали / Vincenzo Natali) [2013, Канада, Франция, ужасы, триллер, детектив, HDRip] Dub

Ответить на тему
 
Автор Сообщение

user ®

Стаж: 7 лет 7 месяцев

Сообщений: 20008

Пост Пост: #1 от 31-Окт-2013 23:20

[Цитировать]

ЛимбHaunter«Не выходи из дома. Не зови на помощь. Не пытайся вырваться»- Страна: Канада, Франция
Жанр: ужасы, триллер, детектив
Год выпуска: 2013
Продолжительность: 01:36:53-Перевод: Профессиональный (полное дублирование) [Лицензия]
Субтитры: нет
Режиссер: Винченцо Натали / Vincenzo Natali
В ролях: Эбигейл Бреслин, Питер Аутербридж, Мишель Нолден, Стивен МакХэтти, Питер ДаКуна, Элинор Цихи, Дэвид Нолл, Саманта Вайнштейн, Дэвид Хьюлетт, Сара Мэннинен, Мари Дейм, Мишель Коберн-Описание: На первый взгляд, Лиза с её младшим братом и родителями - совершенно обыкновенная семья, ведущая спокойную, размеренную жизнь. Но никто, кроме девочки, не подозревает, что они проживают один и тот же день уже не в первый раз...-

-

Доп. Информация

Сценарий: Брайан Кинг / Brian King, Мэттью Брайан Кинг / Matthew Brian King
Продюсер: Стивен Хобан / Steven Hoban, Винсент Мэрэвэл / Vincent Maraval, Винченцо Натали / Vincenzo Natali, Дерек Раппапорт / Derek Rappaport, Джон Рэймондс / John Raymonds
Оператор: Джон Джоффин / Jon Joffin
Сборы в России: $578 851
Мировая премьера: 9 марта 2013
Релиз на DVD: 20 октября 2013,
«CP Дистрибуция»,

Релиз на Blu-ray: 24 октября 2013,
«CP Дистрибуция»,
-Качество: HDRip (Исходник неизвестен)
Контейнер: AVI
Видео: XviD, 720x400 (16:9), 1695 kbps, 24 fps, 0,245 bpp
Аудио: AC3 / 5.1 / 48 kHz / 448 kbps / 16 bit-

Знаете ли Вы, что...

  • Среди главных источников вдохновения Винченцо Натали называл «Персону» Ингмара Бергмана.

Media Info

General
Complete name : G:\L1mb.2013.D.HDRip.1.46.avi
Format : AVI
Format/Info : Audio Video Interleave
File size : 1.46 GiB
Duration : 1h 36mn
Overall bit rate : 2 153 Kbps
Writing application : VirtualDubMod 1.5.10.2 (build 2540/release)
Writing library : VirtualDubMod build 2540/release
Video
ID : 0
Format : MPEG-4 Visual
Format profile : Advanced Simple@L5
Format settings, BVOP : 2
Format settings, QPel : No
Format settings, GMC : No warppoints
Format settings, Matrix : Custom
Codec ID : XVID
Codec ID/Hint : XviD
Duration : 1h 36mn
Bit rate : 1 696 Kbps
Width : 720 pixels
Height : 400 pixels
Display aspect ratio : 16:9
Frame rate : 24.000 fps
Color space : YUV
Chroma subsampling : 4:2:0
Bit depth : 8 bits
Scan type : Progressive
Compression mode : Lossy
Bits/(Pixel*Frame) : 0.245
Stream size : 1.15 GiB (79%)
Writing library : XviD 1.2.1 (UTC 2008-12-04)
Audio
ID : 1
Format : AC-3
Format/Info : Audio Coding 3
Mode extension : CM (complete main)
Codec ID : 2000
Duration : 1h 36mn
Bit rate mode : Constant
Bit rate : 448 Kbps
Channel(s) : 6 channels
Channel positions : Front: L C R, Side: L R, LFE
Sampling rate : 48.0 KHz
Bit depth : 16 bits
Compression mode : Lossy
Stream size : 310 MiB (21%)
Alignment : Split accross interleaves
Interleave, duration : 42 ms (1.00 video frame)
Interleave, preload duration : 500 ms

Скриншот с названием фильма

Скриншоты

Скачать

Скачать торрент!

Как скачивать? · Что такое торрент? · Рейтинг и ограничения

Сайт не распространяет и не хранит электронные версии произведений, а лишь предоставляет доступ к создаваемому пользователями каталогу ссылок на торрент-файлы, которые содержат только списки хеш-сумм

[Профиль] [ЛС]
Показать сообщения:    
Ответить на тему

Текущее время: Сегодня 02:17

Часовой пояс: GMT + 4



Вы не можете начинать темы
Вы не можете отвечать на сообщения
Вы не можете редактировать свои сообщения
Вы не можете удалять свои сообщения
Вы не можете голосовать в опросах
Вы не можете прикреплять файлы к сообщениям
Вы не можете скачивать файлы