Каникулы строгого режима (полная версия) (Игорь Зайцев) [2009, Драма, Комедия, Приключения, SATRip-AVC]

Ответить на тему
 
Автор Сообщение

user ®

Стаж: 7 лет 7 месяцев

Сообщений: 20008

Пост Пост: #1 от 31-Окт-2013 17:55

[Цитировать]

Каникулы строгого режима (полная версия)- Жанр: Драма, Комедия, Приключения
Год выпуска: 2009
Продолжительность: 02:20:21-Режиссер: Игорь Зайцев
В ролях: Сергей Безруков, Дмитрий Дюжев, Сабина Ахмедова, Алёна Бабенко, Владимир Меньшов, Кирилл Плетнёв, Людмила Полякова, Тимур Боканча, Андрей Кивинов, Фёдор Крестовый и др.-Описание: История о том, как двое не самых молодых людей, Кольцов и Сумароков, волею судьбы оказались вожатыми в пионерском лагере в компании в меру энергичного руководства и не в меру энергичных детей. Все бы ничего, да только попали они туда прямо с арестантской шконки.
Сначала Кольцов, будучи весьма уважаемым профессиональным сотрудником МВД, имеющий за плечами две поездки в Чечню, вдруг по неосторожности совершает убийство своего коллеги. Стараниями родственников покойного попадает на «черную» зону, где ему не рад никто от руководящей элиты до зэков. Там он знакомится с Сумароковым. При содействии сотрудника колонии Гагарина мужчины бегут из тюрьмы и устраиваются вожатыми в пионерлагерь.- -Автор: AngelOfTrue-Качество видео: SATRip-AVC
Формат видео: MKV
Видео: 612x384@890x384 (2.35:1), 25 fps, x264 ~2020 kbps avg, 0.344 bit/pixel
Аудио: AC3 Dolby Digital / 48 KHz / 192 kbps / 2/0 (L,R) ch

x264 log

avs [info]: 612x384p 16:11 @ 25/1 fps (cfr)
x264 [warning]: --psnr used with psy on: results will be invalid!
x264 [warning]: --tune psnr should be used if attempting to benchmark psnr!
x264 [info]: using SAR=16/11
x264 [info]: using cpu capabilities: MMX2 SSE2Fast SSSE3 SSE4.2 AVX AVX2 FMA3 LZCNT BMI1 BMI2
x264 [info]: profile High, level 3.1
x264 [info]: frame I:2401 Avg QP:17.06 size: 36031 PSNR Mean Y:46.47 U:49.64 V:49.47 Avg:47.27 Global:46.66
x264 [info]: frame P:49497 Avg QP:19.00 size: 18352 PSNR Mean Y:44.52 U:48.06 V:47.90 Avg:45.38 Global:44.77
x264 [info]: frame B:158634 Avg QP:20.34 size: 7133 PSNR Mean Y:43.70 U:47.51 V:47.31 Avg:44.60 Global:44.00
x264 [info]: consecutive B-frames: 2.5% 3.0% 10.1% 33.1% 20.0% 24.9% 3.7% 1.6% 0.6% 0.3% 0.1% 0.0%
x264 [info]: mb I I16..4: 3.1% 74.9% 22.1%
x264 [info]: mb P I16..4: 0.9% 22.1% 3.7% P16..4: 24.6% 30.9% 13.6% 2.3% 0.2% skip: 1.6%
x264 [info]: mb B I16..4: 0.2% 3.2% 0.6% B16..8: 30.7% 25.6% 4.7% direct:13.2% skip:21.8% L0:33.1% L1:35.5% BI:31.4%
x264 [info]: 8x8 transform intra:81.2% inter:60.1%
x264 [info]: direct mvs spatial:98.3% temporal:1.7%
x264 [info]: coded y,uvDC,uvAC intra: 90.0% 93.1% 79.0% inter: 44.2% 45.4% 17.0%
x264 [info]: i16 v,h,dc,p: 37% 16% 11% 37%
x264 [info]: i8 v,h,dc,ddl,ddr,vr,hd,vl,hu: 20% 11% 8% 6% 9% 13% 8% 13% 11%
x264 [info]: i4 v,h,dc,ddl,ddr,vr,hd,vl,hu: 21% 26% 5% 5% 9% 12% 7% 8% 7%
x264 [info]: i8c dc,h,v,p: 34% 20% 29% 17%
x264 [info]: Weighted P-Frames: Y:9.2% UV:4.7%
x264 [info]: ref P L0: 50.0% 11.1% 16.5% 7.2% 4.8% 3.6% 2.7% 1.7% 1.3% 1.0% 0.1% 0.0%
x264 [info]: ref B L0: 83.6% 9.8% 2.8% 1.4% 0.9% 0.7% 0.5% 0.2% 0.1%
x264 [info]: ref B L1: 96.2% 3.8%
x264 [info]: SSIM Mean Y:0.9868974 (18.826db)
x264 [info]: PSNR Mean Y:43.926 U:47.662 V:47.472 Avg:44.816 Global:44.192 kb/s:2020.01
x264 [total]: encoded 210532 frames, 14.58 fps, 2020.01 kb/s

-

MediaInfo

Format : Matroska
Format version : Version 4 / Version 2
File size : 2.17 GiB
Duration : 2h 20mn
Overall bit rate : 2 214 Kbps
Encoded date : UTC 2013-10-31 11:43:18
Writing application : mkvmerge v6.1.0 ('Old Devil') built on Mar 4 2013 09:10:42
Writing library : libebml v1.3.0 + libmatroska v1.4.0
Video
ID : 1
Format : AVC
Format/Info : Advanced Video Codec
Format profile : High@L3.1
Format settings, CABAC : Yes
Format settings, ReFrames : 10 frames
Codec ID : V_MPEG4/ISO/AVC
Duration : 2h 20mn
Bit rate : 2 020 Kbps
Width : 612 pixels
Height : 384 pixels
Display aspect ratio : 2.35:1
Frame rate mode : Constant
Frame rate : 25.000 fps
Color space : YUV
Chroma subsampling : 4:2:0
Bit depth : 8 bits
Scan type : Progressive
Bits/(Pixel*Frame) : 0.344
Stream size : 1.94 GiB (89%)
Title : Kanikuly.Strogogo.Rezhima.Polnaya.Versiya.2009.RUS.SATRip-AVC.AC3.-AngelOfTrue
Writing library : x264 core 130 r2273 b3065e6
Encoding settings : cabac=1 / ref=10 / deblock=1:-2:-1 / analyse=0x3:0x133 / me=umh / subme=11 / psy=1 / psy_rd=1.00:0.10 / mixed_ref=1 / me_range=32 / chroma_me=1 / trellis=2 / 8x8dct=1 / cqm=0 / deadzone=21,11 / fast_pskip=0 / chroma_qp_offset=-3 / threads=6 / lookahead_threads=1 / sliced_threads=0 / nr=0 / decimate=0 / interlaced=0 / bluray_compat=0 / constrained_intra=0 / bframes=11 / b_pyramid=2 / b_adapt=2 / b_bias=0 / direct=3 / weightb=1 / open_gop=0 / weightp=2 / keyint=250 / keyint_min=25 / scenecut=40 / intra_refresh=0 / rc=2pass / mbtree=0 / bitrate=2020 / ratetol=1.0 / qcomp=0.65 / qpmin=10 / qpmax=51 / qpstep=4 / cplxblur=20.0 / qblur=0.5 / ip_ratio=1.35 / pb_ratio=1.25 / aq=2:1.00
Language : Russian
Default : Yes
Forced : No
Audio
ID : 2
Format : AC-3
Format/Info : Audio Coding 3
Mode extension : CM (complete main)
Format settings, Endianness : Big
Codec ID : A_AC3
Duration : 2h 20mn
Bit rate mode : Constant
Bit rate : 192 Kbps
Channel count : 2 channels
Channel positions : Front: L R
Sampling rate : 48.0 KHz
Bit depth : 16 bits
Compression mode : Lossy
Stream size : 193 MiB (9%)
Title : AC3 Dolby Digital / 48 KHz / 192 kbps / 2/0 (L,R) ch
Language : Russian
Default : Yes
Forced : Yes

-

Скриншоты (анаморф)


Скачать

Скачать торрент!

Как скачивать? · Что такое торрент? · Рейтинг и ограничения

Сайт не распространяет и не хранит электронные версии произведений, а лишь предоставляет доступ к создаваемому пользователями каталогу ссылок на торрент-файлы, которые содержат только списки хеш-сумм

[Профиль] [ЛС]
Показать сообщения:    
Ответить на тему

Текущее время: Сегодня 04:12

Часовой пояс: GMT + 4



Вы не можете начинать темы
Вы не можете отвечать на сообщения
Вы не можете редактировать свои сообщения
Вы не можете удалять свои сообщения
Вы не можете голосовать в опросах
Вы не можете прикреплять файлы к сообщениям
Вы не можете скачивать файлы