Брат 2 (Алексей Балабанов) [2000, Россия, Боевик, DVDRip]

Ответить на тему
 
Автор Сообщение

user ®

Стаж: 7 лет 7 месяцев

Сообщений: 20008

Пост Пост: #1 от 31-Окт-2013 17:55

[Цитировать]

Брат 2
Страна: Россия
Жанр: Боевик
Год выпуска: 2000
Продолжительность: 2:02:37
Режиссёр: Алексей Балабанов
В ролях: Сергей Бодров (Данила Багров) ,Виктор Сухоруков (Виктор Багров) , Александр Дьяченко (Константин Громов, Дмитрий Громов) , Сергей Маковецкий (Валентин Белкин) , Кирилл Пирогов (Илья Сетевой) , Дарья Лесникова (Даша / Мерилин) , Гари Хьюстон (Мэнис) , Ирина Салтыкова (камео) , Рей Толер (Бен Джонсон) , Александр Карамнов (Борис, охранник Салтыковой) , Константин Мурзенко («Фашист», археолог-оружейник), Иван Демидов (ведущий программы «В мире людей») , Аркадий Зерский (Куйбышев, сомнительный продавец-еврей) , Ирина Рахманова (девушка в бане) , Инна Капнулина (девушка в бане) , Егор Пазенко (следователь в отделении милиции допрашивающий Данилу)
Описание: Участвуя в программе на телевидении, Данила Багров встречает своих друзей по Чечне. Одного из них внезапно убивают. Данила знает, что у убитого были неприятности из-за брата - хоккеиста, играющего за американский клуб. Данила должен разобраться. Теперь его фото ходит по рукам русской и американской мафий. Новоявленные "Аль Капоне" с ужасом осознают, что нарвались на настоящего профессионала...
Сэмпл: http://multi-up.com/688808
Качество видео: DVDRip
Формат видео: AVI
Видео: 704x416 (1.69:1), 25 fps, XviD build 65, 1496 kbps avg, 0.20 bit/pixel
Аудио: 48 kHz, AC3 Dolby Digital, 2/0 (L,R) ch, 192 kbps

MediaInfo

Формат : AVI
Формат/Информация : Audio Video Interleave
Размер файла : 1,45 Гбайт
Продолжительность : 2 ч. 2 м.
Общий поток : 1698 Кбит/сек
Программа кодирования : VirtualDubModRus 1.5.10.2 (build 2540/release)
Библиотека кодирования : VirtualDubMod build 2540/release
Видео
Идентификатор : 0
Формат : MPEG-4 Visual
Профиль формата : Advanced Simple@L5
Параметр BVOP формата : 1
Параметр QPel формата : Нет
Параметр GMC формата : Без точки перехода
Параметр матрицы формата : Выборочная
Идентификатор кодека : XVID
Идентификатор кодека/Подсказка : XviD
Продолжительность : 2 ч. 2 м.
Битрейт : 1497 Кбит/сек
Ширина : 704 пикселя
Высота : 416 пикселей
Соотношение сторон : 1,692
Частота кадров : 25,000 кадров/сек
Цветовое пространство : YUV
Субдискретизация насыщенности : 4:2:0
Битовая глубина : 8 бит
Тип развёртки : Прогрессивная
Метод сжатия : С потерями
Бит/(Пиксели*Кадры) : 0.204
Размер потока : 1,28 Гбайт (88%)
Библиотека кодирования : XviD 65
Аудио
Идентификатор : 1
Формат : AC-3
Формат/Информация : Audio Coding 3
Расширение режима : CM (complete main)
Параметр Endianness формата : Big
Идентификатор кодека : 2000
Продолжительность : 2 ч. 2 м.
Вид битрейта : Постоянный
Битрейт : 192 Кбит/сек
Каналы : 2 канала
Расположение каналов : Front: L R
Частота : 48,0 КГц
Битовая глубина : 16 бит
Метод сжатия : С потерями
Задержка видео : 160 мс.
Размер потока : 168 Мбайт (11%)
Выравнивание : Соединение по промежуткам
Продолжительность промежутка : 40 мс. (1,00 видеокадр)
Время предзагрузки промежутка : 512 мс.

Скриншоты

Скачать

Скачать торрент!

Как скачивать? · Что такое торрент? · Рейтинг и ограничения

Сайт не распространяет и не хранит электронные версии произведений, а лишь предоставляет доступ к создаваемому пользователями каталогу ссылок на торрент-файлы, которые содержат только списки хеш-сумм

[Профиль] [ЛС]
Показать сообщения:    
Ответить на тему

Текущее время: Сегодня 02:26

Часовой пояс: GMT + 4



Вы не можете начинать темы
Вы не можете отвечать на сообщения
Вы не можете редактировать свои сообщения
Вы не можете удалять свои сообщения
Вы не можете голосовать в опросах
Вы не можете прикреплять файлы к сообщениям
Вы не можете скачивать файлы