Клятва молчания / An Amish Murder (Стивен Джилленхол / Stephen Gyllenhaal) [2013, США, драма, триллер, детектив, WEB-DLRip] DVO + Original Eng

Ответить на тему
 
Автор Сообщение

user ®

Стаж: 7 лет 7 месяцев

Сообщений: 20008

Пост Пост: #1 от 31-Окт-2013 14:45

[Цитировать]

Клятва молчания / An Amish Murder
Страна: США
Жанр: драма, триллер, детектив
Год выпуска: 2013
Продолжительность: 01:25:11
Перевод: Профессиональный (двухголосый закадровый) студия Elrom
Cубтитры: нет
Оригинальная аудиодорожка: английский
Режиссер: Стивен Джилленхол / Stephen Gyllenhaal
В ролях: Нив Кэмпбелл, Кристиан Кэмпбелл, Си Томас Хауэлл, Кэти Грабстас, Жилон Вановер, Мэри Кронерт, Дуан Мюррэй, Ноам Дженкинс, Билли Маклеллан
Описание: Всё что происходит в общине амишей остаётся в общине, это дело только амишей и никого более... Именно это обстоятельство и является причиной, из-за которой Кэйт Баркхолдер, в свои восемнадцать лет, убежала из дома, покинув общину амишей. Сейчас, по прошествии многих лет, она - успешный шеф полицейского участка, и ей, как раз, предстоит разгадать запутанное дело связанное с убийством амишской девушки и вывести на чистую воду хорошо замаскированного убийцу...
* Амиши - одно из направлений анабаптизма, религиозного движения.
Сэмпл: http://multi-up.com/918731
Качество видео: WEB-DLRip
Формат видео: AVI
Видео: XviD, 720x400, 2063 Kbps, 23.976 fps
Аудио: MP3, 48.0 KHz, 2 ch, 128 Kbps - рус.
Аудио 2: MP3, 48.0 KHz, 2 ch, 128 Kbps - eng.

MediaInfo

Общее
Полное имя : D:\An.Amish.Murder_2013.WEB-DLRip.avi
Формат : AVI
Формат/Информация : Audio Video Interleave
Размер файла : 1,37 Гбайт
Продолжительность : 1 ч. 24 м.
Общий поток : 2333 Кбит/сек
Программа кодирования : VirtualDubMod 1.5.10.3 | www.virtualdub-fr.org || (build 2550/release)
Библиотека кодирования : VirtualDubMod build 2550/release
Видео
Идентификатор : 0
Формат : MPEG-4 Visual
Профиль формата : Advanced Simple@L5
Параметр BVOP формата : 2
Параметр QPel формата : Нет
Параметр GMC формата : Без точки перехода
Параметр матрицы формата : Default (MPEG)
Идентификатор кодека : XVID
Идентификатор кодека/Подсказка : XviD
Продолжительность : 1 ч. 24 м.
Битрейт : 2063 Кбит/сек
Ширина : 720 пикселей
Высота : 400 пикселей
Соотношение сторон : 16:9
Частота кадров : 23,976 кадра/сек
Цветовое пространство : YUV
Субдискретизация насыщенности : 4:2:0
Битовая глубина : 8 бит
Тип развёртки : Прогрессивная
Метод сжатия : С потерями
Бит/(Пиксели*Кадры) : 0.299
Размер потока : 1,21 Гбайт (88%)
Библиотека кодирования : XviD 1.2.1 (UTC 2008-12-04)
Аудио #1
Идентификатор : 1
Формат : MPEG Audio
Версия формата : Version 1
Профиль формата : Layer 3
Режим : Joint stereo
Расширение режима : MS Stereo
Идентификатор кодека : 55
Идентификатор кодека/Подсказка : MP3
Продолжительность : 1 ч. 24 м.
Вид битрейта : Постоянный
Битрейт : 128 Кбит/сек
Каналы : 2 канала
Частота : 48,0 КГц
Метод сжатия : С потерями
Размер потока : 77,1 Мбайт (5%)
Выравнивание : Соединение по промежуткам
Продолжительность промежутка : 42 мс. (1,00 видеокадр)
Время предзагрузки промежутка : 504 мс.
Библиотека кодирования : LAME3.97 (beta)
Аудио #2
Идентификатор : 2
Формат : MPEG Audio
Версия формата : Version 1
Профиль формата : Layer 3
Режим : Joint stereo
Расширение режима : MS Stereo
Идентификатор кодека : 55
Идентификатор кодека/Подсказка : MP3
Продолжительность : 1 ч. 24 м.
Вид битрейта : Постоянный
Битрейт : 128 Кбит/сек
Каналы : 2 канала
Частота : 48,0 КГц
Метод сжатия : С потерями
Размер потока : 77,1 Мбайт (5%)
Выравнивание : Соединение по промежуткам
Продолжительность промежутка : 42 мс. (1,00 видеокадр)
Время предзагрузки промежутка : 504 мс.
Библиотека кодирования : LAME3.97 (beta)

Скриншот c названием фильма

Скриншоты

Скачать

Скачать торрент!

Как скачивать? · Что такое торрент? · Рейтинг и ограничения

Сайт не распространяет и не хранит электронные версии произведений, а лишь предоставляет доступ к создаваемому пользователями каталогу ссылок на торрент-файлы, которые содержат только списки хеш-сумм

[Профиль] [ЛС]
Показать сообщения:    
Ответить на тему

Текущее время: Сегодня 00:25

Часовой пояс: GMT + 4



Вы не можете начинать темы
Вы не можете отвечать на сообщения
Вы не можете редактировать свои сообщения
Вы не можете удалять свои сообщения
Вы не можете голосовать в опросах
Вы не можете прикреплять файлы к сообщениям
Вы не можете скачивать файлы