Барби и ее сестры в Сказке о пони / Barbie & Her Sisters in A Pony Tale [2013, мультфильм, BDRip] Dub

Ответить на тему
 
Автор Сообщение

user ®

Стаж: 11 лет

Сообщений: 15145

Пост Пост: #1 от 31-Окт-2013 08:25

[Цитировать]

Барби и ее сестры в Сказке о пони / Barbie & Her Sisters in A Pony Tale- Страна: США
Жанр: мультфильм
Год выпуска: 2013
Продолжительность: 01:14:11
Перевод: Профессиональный (полное дублирование)
Субтитры: Нет-Описание: Барби™ и её сестры отправляются в сказочные Швейцарские Альпы, чтобы провести незабываемые летние каникулы в школе верховой езды! Барби™ с нетерпением ждет встречи с новой лошадкой, которую намеревается забрать с собой в Малибу. Стэйси™ очень хочется доказать всем, что она великолепная наездница. Малышка Челси™ мечтает покататься на «настоящих больших лошадках», а Скиппер™… , она, пожалуй, больше любит красочно описывать приключения, чем участвовать в них. Каникулы идут своим чередом, пока Барби™ не находит в лесу необычную дикую лошадь – и каникулы сестер становятся по-настоящему волшебными!-Рейтинг:
-Релиз на DVD: 17 октября 2013, «Двадцатый Век Фокс СНГ»-Релиз: -Семпл-Качество: BDRip [BARBIE_HER_SISTERS_PONY_TALE_REMUX_HDCLUB]
Формат: AVI
Видео: 720x400 (1.80:1), 23.976 fps, XviD build 65 ~2396 kbps avg, 0.35 bit/pixel
Аудио: 48 kHz, AC3 Dolby Digital, 3/2 (L,C,R,l,r) + LFE ch, ~384 kbps
Субтитры: Отсутствуют

MI

Format : AVIFormat/Info : Audio Video InterleaveFile size : 1.45 GiBDuration : 1h 14mnOverall bit rate : 2 790 KbpsWriting application : VirtualDubMod 1.5.10.3 | www.virtualdub-fr.org || (build 2550/release)Writing library : VirtualDubMod build 2550/release
VideoID : 0Format : MPEG-4 VisualFormat profile : Advanced Simple@L5Format settings, BVOP : 2Format settings, QPel : NoFormat settings, GMC : No warppointsFormat settings, Matrix : CustomCodec ID : XVIDCodec ID/Hint : XviDDuration : 1h 14mnBit rate : 2 397 KbpsWidth : 720 pixelsHeight : 400 pixelsDisplay aspect ratio : 16:9Frame rate : 23.976 fpsColor space : YUVChroma subsampling : 4:2:0Bit depth : 8 bitsScan type : ProgressiveCompression mode : LossyBits/(Pixel*Frame) : 0.347Stream size : 1.24 GiB (86%)Writing library : XviD 65
AudioID : 1Format : AC-3Format/Info : Audio Coding 3Mode extension : CM (complete main)Format settings, Endianness : BigCodec ID : 2000Duration : 1h 14mnBit rate mode : ConstantBit rate : 384 KbpsChannel(s) : 6 channelsChannel positions : Front: L C R, Side: L R, LFESampling rate : 48.0 KHzBit depth : 16 bitsCompression mode : LossyStream size : 204 MiB (14%)Alignment : Split accross interleavesInterleave, duration : 42 ms (1.00 video frame)Interleave, preload duration : 500 ms
-
Скачать

Скачать торрент! Барби и ее сестры в Сказке о пони / Barbie & Her Sisters in A Pony Tale [2013, мультфильм, BDRip] Dub

Как скачивать? · Что такое торрент? · Рейтинг и ограничения

Сайт не распространяет и не хранит электронные версии произведений, а лишь предоставляет доступ к создаваемому пользователями каталогу ссылок на торрент-файлы, которые содержат только списки хеш-сумм

[Профиль] [ЛС]
Показать сообщения:    
Ответить на тему

Текущее время: Сегодня 19:33

Часовой пояс: GMT + 4



Вы не можете начинать темы
Вы не можете отвечать на сообщения
Вы не можете редактировать свои сообщения
Вы не можете удалять свои сообщения
Вы не можете голосовать в опросах
Вы не можете прикреплять файлы к сообщениям
Вы не можете скачивать файлы