Проклятие Чаки / Curse of Chucky (Дон Манчини / Don Mancini) [2013 г., США, ужасы, триллер, BDRip] Dub + Original + Sub (Rus, Ukr, Eng)

Ответить на тему
 
Автор Сообщение

user ®

Стаж: 7 лет 7 месяцев

Сообщений: 20008

Пост Пост: #1 от 31-Окт-2013 08:25

[Цитировать]

Проклятие ЧакиCurse of Chucky-«Be afraid. Be effing afraid»- Год выпуска: 2013
Страна: США-Жанр: ужасы, триллер
Продолжительность: 01:36:41
Перевод: Профессиональный (полное дублирование)
Субтитры: русские, украинские, английские-Режиссер: Дон Манчини / Don Mancini
Сценарий: Дон Манчини / Don Mancini
Продюсер: Дэвид Киршнер / David Kirschner, Дон Манчини / Don Mancini, Гари Олдройд / Gary Oldroyd, Эллен Раттер / Ellen Rutter
Оператор: Майкл Маршалл / Michael Marshall
Композитор: Джозеф ЛоДука / Joseph LoDuca-В ролях: Шэнтал Куэснел (Sarah), Фиона Дуриф (Nica), Джордан Джаварис (US EX Guy), Даниэль Бисутти (Barb), Эй Мартинез (Father Frank), Мейтленд МакКоннелл (Jill), Бреннан Эллиотт (Ian), Саммер Х. Хауэлл (Alice), Адам Хертинг (Officer Stanton), Даррен Уолл (Highway Cop), Уилл Войтович (Lead Fireman), Anne Leveille (Young Nica)-Описание: В центре событий окажется молодая женщина по имени Ника тяжело переживающая самоубийство матери. Ее старшая сестра Барбара - властная, волевая женщина, - приезжает вместе с семьей к Нике, чтобы поддержать ее и уладить дела матери. Пока сестры заняты делом, малолетняя дочь Барбары находит в доме посылку пришедшую от неизвестного адресата, а в ней рыжеволосую куклу Чаки. Вскоре происходит череда кровавых убийств. Ника начинает подозревать, что в убийствах неким образом замешана кукла. По ходу дела выясняется, что у Чаки во всем этом есть особый интерес. Он решил закончить работу которую начал 20 лет назад, и в этот раз он намерен довести дело до кровавого и шокирующего финала.-kinopoisk.ru: 5.117 (1210)
imdb.com: 5.60 (7298)
MPAA: R - Лицам до 17 лет обязательно присутствие взрослого-Качество: BDRip /
Контейнер: AVI
Видео: 720x400 (1.80:1), 23.976 fps, XviD MPEG-4 ~2323 kbps avg, 0.34 bit/pixel
Аудио I: 48 kHz, AC3 Dolby Digital, 3/2 (L,C,R,l,r) + LFE ch, ~448 kbps (Rus)
Аудио II: 48 kHz, AC3 Dolby Digital, 3/2 (L,C,R,l,r) + LFE ch, ~448 kbps (Eng)-

MediaInfo

General
Complete name : E:\Рипы\Curse.of.Chucky.2013.BDRip.All.Films\Curse.of.Chucky.2013.BDRip.All.Films.avi
Format : AVI
Format/Info : Audio Video Interleave
Format profile : OpenDML
File size : 2.18 GiB
Duration : 1h 36mn
Overall bit rate : 3 227 Kbps
Movie name : Curse.of.Chucky.2013.BDRip.All.Films
Director : DIABLO93
Genre : Horror
Writing application : VirtualDubMod 1.5.10.3 | www.virtualdub-fr.org || (build 2550/release)
Original source form/Name : Movie
Copyright :
Video
ID : 0
Format : MPEG-4 Visual
Format profile : Advanced Simple@L5
Format settings, BVOP : 2
Format settings, QPel : No
Format settings, GMC : No warppoints
Format settings, Matrix : Custom
Codec ID : XVID
Codec ID/Hint : XviD
Duration : 1h 36mn
Bit rate : 2 313 Kbps
Width : 720 pixels
Height : 400 pixels
Display aspect ratio : 16:9
Frame rate : 23.976 fps
Color space : YUV
Chroma subsampling : 4:2:0
Bit depth : 8 bits
Scan type : Progressive
Compression mode : Lossy
Bits/(Pixel*Frame) : 0.335
Stream size : 1.56 GiB (72%)
Writing library : XviD 65
Audio #1
ID : 1
Format : AC-3
Format/Info : Audio Coding 3
Mode extension : CM (complete main)
Format settings, Endianness : Big
Codec ID : 2000
Duration : 1h 36mn
Bit rate mode : Constant
Bit rate : 448 Kbps
Channel(s) : 6 channels
Channel positions : Front: L C R, Side: L R, LFE
Sampling rate : 48.0 KHz
Bit depth : 16 bits
Compression mode : Lossy
Stream size : 310 MiB (14%)
Alignment : Split accross interleaves
Interleave, duration : 42 ms (1.00 video frame)
Interleave, preload duration : 500 ms
Audio #2
ID : 2
Format : AC-3
Format/Info : Audio Coding 3
Mode extension : CM (complete main)
Format settings, Endianness : Big
Codec ID : 2000
Duration : 1h 36mn
Bit rate mode : Constant
Bit rate : 448 Kbps
Channel(s) : 6 channels
Channel positions : Front: L C R, Side: L R, LFE
Sampling rate : 48.0 KHz
Bit depth : 16 bits
Compression mode : Lossy
Stream size : 310 MiB (14%)
Alignment : Split accross interleaves
Interleave, duration : 42 ms (1.00 video frame)
Interleave, preload duration : 500 ms

-

Сэмпл

Скачать

Скриншоты

Скачать

Скачать торрент!

Как скачивать? · Что такое торрент? · Рейтинг и ограничения

Сайт не распространяет и не хранит электронные версии произведений, а лишь предоставляет доступ к создаваемому пользователями каталогу ссылок на торрент-файлы, которые содержат только списки хеш-сумм

[Профиль] [ЛС]
Показать сообщения:    
Ответить на тему

Текущее время: Сегодня 15:37

Часовой пояс: GMT + 4



Вы не можете начинать темы
Вы не можете отвечать на сообщения
Вы не можете редактировать свои сообщения
Вы не можете удалять свои сообщения
Вы не можете голосовать в опросах
Вы не можете прикреплять файлы к сообщениям
Вы не можете скачивать файлы