Проклятие Чаки / Curse of Chucky (Дон Манчини / Don Mancini) [2013 г., США, ужасы, триллер, BDRip] Dub

Ответить на тему
 
Автор Сообщение

user ®

Стаж: 7 лет 7 месяцев

Сообщений: 20008

Пост Пост: #1 от 31-Окт-2013 08:25

[Цитировать]

Проклятие ЧакиCurse of Chucky-«Be afraid. Be effing afraid»- Год выпуска: 2013
Страна: США-Жанр: ужасы, триллер
Продолжительность: 01:36:41
Перевод: Профессиональный (полное дублирование)
Субтитры: нет-Режиссер: Дон Манчини / Don Mancini
Сценарий: Дон Манчини / Don Mancini
Продюсер: Дэвид Киршнер / David Kirschner, Дон Манчини / Don Mancini, Гари Олдройд / Gary Oldroyd, Эллен Раттер / Ellen Rutter
Оператор: Майкл Маршалл / Michael Marshall
Композитор: Джозеф ЛоДука / Joseph LoDuca-В ролях: Шэнтал Куэснел (Sarah), Фиона Дуриф (Nica), Джордан Джаварис (US EX Guy), Даниэль Бисутти (Barb), Эй Мартинез (Father Frank), Мейтленд МакКоннелл (Jill), Бреннан Эллиотт (Ian), Саммер Х. Хауэлл (Alice), Адам Хертинг (Officer Stanton), Даррен Уолл (Highway Cop), Уилл Войтович (Lead Fireman), Anne Leveille (Young Nica)-Описание: В центре событий окажется молодая женщина по имени Ника тяжело переживающая самоубийство матери. Ее старшая сестра Барбара - властная, волевая женщина, - приезжает вместе с семьей к Нике, чтобы поддержать ее и уладить дела матери. Пока сестры заняты делом, малолетняя дочь Барбары находит в доме посылку пришедшую от неизвестного адресата, а в ней рыжеволосую куклу Чаки. Вскоре происходит череда кровавых убийств. Ника начинает подозревать, что в убийствах неким образом замешана кукла. По ходу дела выясняется, что у Чаки во всем этом есть особый интерес. Он решил закончить работу которую начал 20 лет назад, и в этот раз он намерен довести дело до кровавого и шокирующего финала.-kinopoisk.ru: 5.117 (1210)
imdb.com: 5.60 (7298)
MPAA: R - Лицам до 17 лет обязательно присутствие взрослого-Качество: BDRip /
Контейнер: AVI
Видео: 624x352 (1.77:1), 23.976 fps, XviD build 65 ~935 kbps avg, 0.18 bit/pixel
Аудио: 48 kHz, MPEG Layer 3, 2 ch, ~128.00 kbps avg-

MediaInfo

General
Complete name : E:\Полуфабрикаты\Рипы\Curse.of.Chucky.2013.BDRip.Dub.All.Films.avi
Format : AVI
Format/Info : Audio Video Interleave
File size : 745 MiB
Duration : 1h 36mn
Overall bit rate : 1 073 Kbps
Movie name : Curse.of.Chucky.2013.BDRip.Dub.All.Films
Director : DIABLO93
Genre : Horror
Writing application : VirtualDubMod 1.5.10.3 | www.virtualdub-fr.org || (build 2550/release)
Original source form/Name : Movie
Copyright :
Video
ID : 0
Format : MPEG-4 Visual
Format profile : Advanced Simple@L5
Format settings, BVOP : 2
Format settings, QPel : No
Format settings, GMC : No warppoints
Format settings, Matrix : Custom
Codec ID : XVID
Codec ID/Hint : XviD
Duration : 1h 37mn
Bit rate : 936 Kbps
Width : 624 pixels
Height : 352 pixels
Display aspect ratio : 16:9
Frame rate : 23.976 fps
Color space : YUV
Chroma subsampling : 4:2:0
Bit depth : 8 bits
Scan type : Progressive
Compression mode : Lossy
Bits/(Pixel*Frame) : 0.178
Stream size : 649 MiB (87%)
Writing library : XviD 65
Audio
ID : 1
Format : MPEG Audio
Format version : Version 1
Format profile : Layer 3
Codec ID : 55
Codec ID/Hint : MP3
Duration : 1h 37mn
Bit rate mode : Constant
Bit rate : 128 Kbps
Channel(s) : 2 channels
Sampling rate : 48.0 KHz
Compression mode : Lossy
Stream size : 88.8 MiB (12%)
Alignment : Aligned on interleaves
Interleave, duration : 42 ms (1.00 video frame)
Interleave, preload duration : 504 ms
Writing library : LAME3.99r
Encoding settings : -m s -V 4 -q 2 -lowpass 17 -b 128

-

Сэмпл

Скачать

Скриншоты

Скачать

Скачать торрент!

Как скачивать? · Что такое торрент? · Рейтинг и ограничения

Сайт не распространяет и не хранит электронные версии произведений, а лишь предоставляет доступ к создаваемому пользователями каталогу ссылок на торрент-файлы, которые содержат только списки хеш-сумм

[Профиль] [ЛС]
Показать сообщения:    
Ответить на тему

Текущее время: Сегодня 03:51

Часовой пояс: GMT + 4



Вы не можете начинать темы
Вы не можете отвечать на сообщения
Вы не можете редактировать свои сообщения
Вы не можете удалять свои сообщения
Вы не можете голосовать в опросах
Вы не можете прикреплять файлы к сообщениям
Вы не можете скачивать файлы