Забирая жизни / Taking Lives (Д. Дж. Карузо / D.J. Caruso) [2004, США, Триллер, BDRip 720p] [Режиссерская версия / Unrated Director\'s Cut] Dub + Sub Rus, Eng + Original Eng

Ответить на тему
 
Автор Сообщение

user ®

Стаж: 7 лет 7 месяцев

Сообщений: 20008

Пост Пост: #1 от 31-Окт-2013 01:35

[Цитировать]

Забирая жизни / Taking Lives / Режиссерская версия / Unrated Director's Cut
«Он убьет тебя, чтобы стать тобой»
- Страна: США
Жанр: Триллер
Год выпуска: 2004
Продолжительность: 01:49:06
Перевод: Профессиональный (дублированный)
Cубтитры: Русские (Forced), Русские (Full), Английские
Оригинальная аудиодорожка: Английский
Режиссер: Д. Дж. Карузо / D.J. Caruso
В ролях: Анжелина Джоли, Етан Хоук, Кифер Сазерленд, Жена Роуландс, Оливер Мартинез
Описание: Твое имя… твои кредитные карточки… твоя жизнь… Он заберет все сразу! Неуловимый серийный убийца в течение двадцати лет подряд присваивал себе личности своих жертв. Но скоро его ждут трудные времена. За расследование очередного убийства берется агент ФБР Иллиана Скотт.
Иллиане предстоит узнать, что движет маньяком, чтобы предугадать дальнейшие шаги изощренного преступника и «перекрыть ему кислород». Но, каким-то непостижимым образом, убийца знает об отважной агентессе гораздо больше, чем та себе представляла…
Сэмпл: http://sendfile.su/889004
Тип релиза: BDRip 720p
Контейнер: MKV
Видео: AVC, 1280x530 (2.40:1), 7728 Kbps, 23,976 fps, 0,475 bpp
Аудио: Русский, AC3, 384 Kbps, CBR, 6 ch, 16 bit
Аудио 2: Английский, AC3, 640 Kbps, CBR, 6 ch, 16 bit
Формат субтитров: softsub (SRT)

Знаете ли вы, что…

• На роль Иллианы планировали пригласить Гвинет Пэлтроу, Кейт Бланшетт и Дженнифер Лопес.
• Фактическая ошибка: трое полицейских из Квебека, сыгранные французскими актерами (Мартинез, Карио, Англад) говорят на чистом французском языке. Но акцент канадских франкоговорящих блюстителей имеет существенное отличие, подобно тому, как различается британское и американское произношение.

MediaInfo

General
Unique ID : 189281746882118896735095756854227158330 (0x8E6656A2FEF23EC784DBE57ACF20C53A)
Complete name : C:\Users\Mr. Di Fazio\Desktop\Taking Lives 2004 Unrated DC 720p Bluray.mkv
Format : Matroska
Format version : Version 2
File size : 6.80 GiB
Duration : 1h 49mn
Overall bit rate : 8 924 Kbps
Movie name : ☭WIDDER☭
Encoded date : UTC 2013-10-30 14:04:53
Writing application : mkvmerge v5.8.0 ('No Sleep / Pillow') built on Sep 2 2012 15:37:04
Writing library : libebml v1.2.3 + libmatroska v1.3.0
Video
ID : 1
Format : AVC
Format/Info : Advanced Video Codec
Format profile : High@L4.1
Format settings, CABAC : Yes
Format settings, ReFrames : 12 frames
Codec ID : V_MPEG4/ISO/AVC
Duration : 1h 49mn
Bit rate : 7 723 Kbps
Width : 1 280 pixels
Height : 530 pixels
Display aspect ratio : 2.40:1
Frame rate : 23.976 fps
Color space : YUV
Chroma subsampling : 4:2:0
Bit depth : 8 bits
Scan type : Progressive
Bits/(Pixel*Frame) : 0.475
Stream size : 5.89 GiB (87%)
Writing library : x264 core 125 r2207 5f615f7
Encoding settings : cabac=1 / ref=12 / deblock=1:-3:-3 / analyse=0x3:0x133 / me=umh / subme=9 / psy=1 / psy_rd=1.10:0.18 / mixed_ref=1 / me_range=32 / chroma_me=1 / trellis=2 / 8x8dct=1 / cqm=0 / deadzone=21,11 / fast_pskip=0 / chroma_qp_offset=-3 / threads=12 / lookahead_threads=2 / sliced_threads=0 / nr=0 / decimate=0 / interlaced=0 / bluray_compat=0 / constrained_intra=0 / bframes=8 / b_pyramid=2 / b_adapt=2 / b_bias=0 / direct=3 / weightb=1 / open_gop=0 / weightp=2 / keyint=250 / keyint_min=23 / scenecut=40 / intra_refresh=0 / rc=crf / mbtree=0 / crf=14.5 / qcomp=0.50 / qpmin=0 / qpmax=69 / qpstep=4 / ip_ratio=1.40 / pb_ratio=1.30 / aq=2:0.75
Language : English
Matrix coefficients : BT.709-5, BT.1361, IEC 61966-2-4 709, SMPTE RP177
Audio #1
ID : 2
Format : AC-3
Format/Info : Audio Coding 3
Mode extension : CM (complete main)
Codec ID : A_AC3
Duration : 1h 49mn
Bit rate mode : Constant
Bit rate : 384 Kbps
Channel(s) : 6 channels
Channel positions : Front: L C R, Side: L R, LFE
Sampling rate : 48.0 KHz
Bit depth : 16 bits
Compression mode : Lossy
Stream size : 300 MiB (4%)
Title : Дублированный
Language : Russian
Audio #2
ID : 3
Format : AC-3
Format/Info : Audio Coding 3
Mode extension : CM (complete main)
Codec ID : A_AC3
Duration : 1h 49mn
Bit rate mode : Constant
Bit rate : 640 Kbps
Channel(s) : 6 channels
Channel positions : Front: L C R, Side: L R, LFE
Sampling rate : 48.0 KHz
Bit depth : 16 bits
Compression mode : Lossy
Stream size : 499 MiB (7%)
Language : English
Text #1
ID : 4
Format : UTF-8
Codec ID : S_TEXT/UTF8
Codec ID/Info : UTF-8 Plain Text
Title : Forcd
Language : Russian
Text #2
ID : 5
Format : UTF-8
Codec ID : S_TEXT/UTF8
Codec ID/Info : UTF-8 Plain Text
Title : Full
Language : Russian
Text #3
ID : 6
Format : UTF-8
Codec ID : S_TEXT/UTF8
Codec ID/Info : UTF-8 Plain Text
Language : English
Menu
00:00:00.000 : en:00:00:00.000
00:06:28.388 : en:00:06:28.388
00:09:07.380 : en:00:09:07.380
00:14:11.517 : en:00:14:11.517
00:17:11.195 : en:00:17:11.195
00:19:49.021 : en:00:19:49.021
00:24:33.638 : en:00:24:33.638
00:26:46.104 : en:00:26:46.104
00:28:47.892 : en:00:28:47.892
00:32:57.308 : en:00:32:57.308
00:38:37.815 : en:00:38:37.815
00:43:41.952 : en:00:43:41.952
00:48:28.405 : en:00:48:28.405
00:52:52.836 : en:00:52:52.836
00:56:36.559 : en:00:56:36.559
01:00:04.267 : en:01:00:04.267
01:03:00.777 : en:01:03:00.777
01:06:30.820 : en:01:06:30.820
01:09:59.361 : en:01:09:59.361
01:13:47.089 : en:01:13:47.089
01:20:02.296 : en:01:20:02.296
01:25:09.437 : en:01:25:09.437
01:27:44.591 : en:01:27:44.591
01:30:19.580 : en:01:30:19.580
01:33:13.921 : en:01:33:13.921
01:36:20.608 : en:01:36:20.608
01:38:56.430 : en:01:38:56.430
01:42:33.147 : en:01:42:33.147
01:44:49.283 : en:01:44:49.283

Скриншоты

Скачать

Скачать торрент!

Как скачивать? · Что такое торрент? · Рейтинг и ограничения

Сайт не распространяет и не хранит электронные версии произведений, а лишь предоставляет доступ к создаваемому пользователями каталогу ссылок на торрент-файлы, которые содержат только списки хеш-сумм

[Профиль] [ЛС]
Показать сообщения:    
Ответить на тему

Текущее время: Сегодня 18:41

Часовой пояс: GMT + 4



Вы не можете начинать темы
Вы не можете отвечать на сообщения
Вы не можете редактировать свои сообщения
Вы не можете удалять свои сообщения
Вы не можете голосовать в опросах
Вы не можете прикреплять файлы к сообщениям
Вы не можете скачивать файлы