Гипноз / Hipnos (Дэвид Каррерас / David Carreras) [2004 г., Испания, ужасы,триллер, BDRemux 1080i] MVO + AVO (Гранкин) + Original (Spa) + Subs (Eng)

Ответить на тему
 
Автор Сообщение

user ®

Стаж: 7 лет 7 месяцев

Сообщений: 20008

Пост Пост: #1 от 31-Окт-2013 01:35

[Цитировать]

Гипноз / Hipnos

-
-Страна: Испания
Студия: Filmax S.A., P.C. Joan Ginard
Жанр: ужасы,триллер
Год выпуска: 2004
Продолжительность: 01:29:10--Перевод 1: Профессиональный (многоголосый закадровый)
Перевод 2: Авторский (одноголосый закадровый) Е. Гранкин
Cубтитры: английские
Оригинальная аудиодорожка: испанский--Режиссер: Дэвид Каррерас / David Carreras
В ролях: Федор Аткин, Дэмиан Бишир, Джулиан Виллагран, Кристина Брондо, Марисоль Мембрилло, Наталия Санчез--Описание: Молодой врач-психиатр Беатрис устраивается в престижную клинику, где опасных и непредсказуемых больных лечат гипнозом. Взявшись помочь юной пациентке, она добивается успеха. Но когда девочка загадочным образом погибает, Беатрис начинает подозревать, что в белых стенах больницы, затерявшейся в мрачной необитаемой глуши, происходит что-то странное.
Жуткие откровения и пугающие видения ведут её по извилистому лабиринту страха и смерти, где за каждым поворотом таится новая пугающая загадка. Вскоре Беатрис понимает: в этом зловещем царстве гипноза ей суждено стать следующей жертвой неведомого кошмара…--imdb | kinopoisk | Сэмпл--Тип релиза: BDRemux 1080i [Trauma.2004.DUAL.COMPLETE.BLURAY-iFPD]
Контейнер: MKV
Видео: MPEG-4 AVC / 23000 kbps / 1920x1080 / 25 fps / 16:9 / High Profile 4.1
Аудио 1: Russian AC3 / 5.1 / 48 kHz / 448 kbps / 16 bits |MVO|
Аудио 2: Russian AC3 / 2.0 / 48 kHz / 192 kbps / 16 bits |AVO|
Аудио 3: Spanish DTS-HD Master Audio / 5.1 / 48 kHz / 1935 kbps / 16 bits (DTS Core: 5.1 / 48 kHz / 1509 kbps / 16 bits) |original|
Формат субтитров: softsub [SRT]

MediaInfo

ОбщееУникальный идентификатор : 241648569019150747543385988313196959494 (0xB5CBD24E6DCFB38A9DA67A8DDF8A9706)Полное имя : G:\HD\Гипноз.2004.Blu-Ray.Remux.(1080i).mkvФормат : MatroskaВерсия формата : Version 2Размер файла : 15,9 ГбайтПродолжительность : 1 ч. 29 м.Режим общего битрейта : ПеременныйОбщий поток : 25,6 Мбит/секДата кодирования : UTC 2013-10-30 17:38:30Программа кодирования : mkvmerge v5.8.0 ('No Sleep / Pillow') built on Sep 2 2012 15:37:04Библиотека кодирования : libebml v1.2.3 + libmatroska v1.3.0Attachment : Yes
ВидеоИдентификатор : 1Формат : AVCФормат/Информация : Advanced Video CodecПрофиль формата : High@L4.1Параметр CABAC формата : ДаПараметр ReFrames формата : 4 кадраРежим смешивания : Container profile=Unknown@0.0Идентификатор кодека : V_MPEG4/ISO/AVCПродолжительность : 1 ч. 29 м.Вид битрейта : ПеременныйМаксимальный битрейт : 34,0 Мбит/секШирина : 1920 пикселейВысота : 1080 пикселейСоотношение сторон : 16:9Режим частоты кадров : ПостоянныйЧастота кадров : 25,000 кадров/секСтандарт вещания : PALЦветовое пространство : YUVСубдискретизация насыщенности : 4:2:0Битовая глубина : 8 битТип развёртки : MBAFFDefault : ДаForced : НетОсновные цвета : BT.709Характеристики трансфера : BT.709Коэффициенты матрицы : BT.709
Аудио #1Идентификатор : 2Формат : AC-3Формат/Информация : Audio Coding 3Расширение режима : CM (complete main)Параметр Endianness формата : BigИдентификатор кодека : A_AC3Продолжительность : 1 ч. 29 м.Вид битрейта : ПостоянныйБитрейт : 448 Кбит/секКаналы : 6 каналовРасположение каналов : Front: L C R, Side: L R, LFEЧастота : 48,0 КГцБитовая глубина : 16 битМетод сжатия : С потерямиРазмер потока : 286 Мбайт (2%)Заголовок : MVOЯзык : RussianDefault : ДаForced : Нет
Аудио #2Идентификатор : 3Формат : AC-3Формат/Информация : Audio Coding 3Расширение режима : CM (complete main)Параметр Endianness формата : BigИдентификатор кодека : A_AC3Продолжительность : 1 ч. 29 м.Вид битрейта : ПостоянныйБитрейт : 192 Кбит/секКаналы : 2 каналаРасположение каналов : Front: L RЧастота : 48,0 КГцБитовая глубина : 16 битМетод сжатия : С потерямиРазмер потока : 122 Мбайт (1%)Заголовок : Е. ГранкинЯзык : RussianDefault : НетForced : Нет
Аудио #3Идентификатор : 4Формат : DTSФормат/Информация : Digital Theater SystemsПрофиль формата : MA / CoreРежим : 16Параметр Endianness формата : BigИдентификатор кодека : A_DTSПродолжительность : 1 ч. 29 м.Вид битрейта : ПеременныйБитрейт : Неизвестно / 1509 Кбит/секКаналы : 6 каналовРасположение каналов : Front: L C R, Side: L R, LFEЧастота : 48,0 КГцБитовая глубина : 16 битМетод сжатия : Без потерь / LossyЯзык : SpanishDefault : НетForced : Нет
ТекстИдентификатор : 5Формат : UTF-8Идентификатор кодека : S_TEXT/UTF8Идентификатор кодека/Информация : UTF-8 Plain TextЯзык : EnglishDefault : НетForced : Нет
Меню00:00:00.000 : :Chapter 0100:13:16.240 : :Chapter 0200:31:16.880 : :Chapter 0300:38:26.560 : :Chapter 0400:50:23.240 : :Chapter 0500:59:52.960 : :Chapter 0601:07:05.480 : :Chapter 0701:17:46.439 : :Chapter 08

Скриншоты


Оригинал 5.1
Скачать

Скачать торрент!

Как скачивать? · Что такое торрент? · Рейтинг и ограничения

Сайт не распространяет и не хранит электронные версии произведений, а лишь предоставляет доступ к создаваемому пользователями каталогу ссылок на торрент-файлы, которые содержат только списки хеш-сумм

[Профиль] [ЛС]
Показать сообщения:    
Ответить на тему

Текущее время: Сегодня 11:56

Часовой пояс: GMT + 4



Вы не можете начинать темы
Вы не можете отвечать на сообщения
Вы не можете редактировать свои сообщения
Вы не можете удалять свои сообщения
Вы не можете голосовать в опросах
Вы не можете прикреплять файлы к сообщениям
Вы не можете скачивать файлы