Клятва молчания / An Amish Murder (Стивен Джилленхол / Stephen Gyllenhaal) [2013, США, Драма, Триллер, WEB-DLRip] DVO (студия Elrom)

Ответить на тему
 
Автор Сообщение

user ®

Стаж: 7 лет 7 месяцев

Сообщений: 20008

Пост Пост: #1 от 31-Окт-2013 01:35

[Цитировать]

Клятва молчания / An Amish Murder
Страна: США
Жанр: Драма, Триллер
Год выпуска: 2013
Продолжительность: 01:25:11
Перевод: Профессиональный (двухголосый закадровый) студия Elrom
Cубтитры: нет
Оригинальная аудиодорожка: нет
Режиссер: Стивен Джилленхол / Stephen Gyllenhaal
В ролях: Нив Кэмпбелл /Neve Campbell/, Кристиан Кэмпбелл /Christian Campbell/, Си Томас Хауэлл /C. Thomas Howell/, Кэти Грабстас /Katy Grabstas/, Жилон Вановер /Jilon VanOver/, Мэри Кронерт /ary Krohnert/, Дуан Мюррэй /Duane Murray/, Olivia Gudaniec /Olivia Gudaniec/, Ноам Дженкинс /Noam Jenkins/, Билли Маклеллан /Billy MacLellan/
Описание: Всё что происходит в общине амишей остаётся в общине, это дело только амишей и никого более... Именно это обстоятельство и является причиной, из-за которой Кэйт Баркхолдер, в свои восемнадцать лет, убежала из дома, покинув общину амишей. Сейчас, по прошествии многих лет, она - успешный шеф полицейского участка, и ей, как раз, предстоит разгадать запутанное дело связанное с убийством амишской девушки и вывести на чистую воду хорошо замаскированного убийцу.
Доп. информация:
ИМДБ
Производство: Lifetime Television (США)
Sample
Качество видео: WEB-DLRip
Формат видео: AVI
Видео: Xvid 688x384 23.976fps 1115kbps
Аудио: MPEG Audio Layer 3 44100Hz stereo 96kbps

MediaInfo

General
Complete name : P:\an Amish murder 2013 tv\Klyatva.Molchaniya.2013.WEB-DLRip.Xvid.rus_25KADR.avi
Format : AVI
Format/Info : Audio Video Interleave
File size : 744 MiB
Duration : 1h 25mn
Overall bit rate : 1 221 Kbps
Movie name : Klyatva.Molchaniya.2013
Original source form/Distributed : An.Amish.Murder.2013.720p.WEB-DL.AAC2.0.H.264-BS [PublicHD]
Genre : Thriller, Drama
Copyright : 25KADR
Comment : DVO (Elrom studio)
Video
ID : 0
Format : MPEG-4 Visual
Format profile : Advanced Simple@L5
Format settings, BVOP : Yes
Format settings, QPel : No
Format settings, GMC : No warppoints
Format settings, Matrix : Default (MPEG)
Codec ID : XVID
Codec ID/Hint : XviD
Duration : 1h 25mn
Bit rate : 1 115 Kbps
Width : 688 pixels
Height : 384 pixels
Display aspect ratio : 16:9
Frame rate : 23.976 fps
Color space : YUV
Chroma subsampling : 4:2:0
Bit depth : 8 bits
Scan type : Progressive
Bits/(Pixel*Frame) : 0.176
Stream size : 680 MiB (91%)
Writing library : XviD 64
Audio
ID : 1
Format : MPEG Audio
Format version : Version 1
Format profile : Layer 3
Mode : Joint stereo
Mode extension : Intensity Stereo + MS Stereo
Codec ID : 55
Codec ID/Hint : MP3
Duration : 1h 25mn
Bit rate mode : Constant
Bit rate : 96.0 Kbps
Channel(s) : 2 channels
Sampling rate : 44.1 KHz
Stream size : 58.5 MiB (8%)
Alignment : Split accross interleaves
Interleave, duration : 42 ms (1.00 video frame)
Interleave, preload duration : 500 ms
Language : Russian

Скриншоты



Скачать

Скачать торрент!

Как скачивать? · Что такое торрент? · Рейтинг и ограничения

Сайт не распространяет и не хранит электронные версии произведений, а лишь предоставляет доступ к создаваемому пользователями каталогу ссылок на торрент-файлы, которые содержат только списки хеш-сумм

[Профиль] [ЛС]
Показать сообщения:    
Ответить на тему

Текущее время: Сегодня 22:20

Часовой пояс: GMT + 4



Вы не можете начинать темы
Вы не можете отвечать на сообщения
Вы не можете редактировать свои сообщения
Вы не можете удалять свои сообщения
Вы не можете голосовать в опросах
Вы не можете прикреплять файлы к сообщениям
Вы не можете скачивать файлы