Короли лета / The Kings of Summer (Джордан Вогт-Робертс / Jordan Vogt-Roberts) [2013, США, драма, комедия, HDRip] VO + Original Eng

Ответить на тему
 
Автор Сообщение

user ®

Стаж: 7 лет 7 месяцев

Сообщений: 20008

Пост Пост: #1 от 31-Окт-2013 01:35

[Цитировать]

Короли лета / The Kings of Summer
Страна: США
Жанр: драма, комедия
Год выпуска: 2013
Продолжительность: 01:34:40
Перевод: Одноголосый закадровый datynet
Cубтитры: нет
Оригинальная аудиодорожка: английский
Режиссер: Джордан Вогт-Робертс / Jordan Vogt-Roberts
В ролях: Крэйг Каковски, Гэбриел Бассо, Кристоффер Картер, Нэйтан Кийес, Ник Офферман, Мойзес Ариас, Эрин Мориарти, Уильям Сонни, Ник Дж. Робинсон, Меган Маллалли
Описание: Трое друзей — подростки Джо, Патрик, а также эксцентричный и непредсказуемый Биаджо — решают сбежать из родного дома в лес, чтобы начать жизнь, не зависимую от родительского контроля. Построив самодельное жильё, ребята наконец-то ощущают себя полноправными хозяевами собственной судьбы. Так начинается их идеальное лето...
Сэмпл: http://multi-up.com/918571
Санденс, 2013 год
Номинации: Гран-при в категории «Драматический фильм»


Качество видео: HDRip
Формат видео: AVI
Видео: XviD, 720х304, 1670 кбит/с, 23,976 fps
Аудио: AC3, 192 кбит/с, 44 КГц- рус
Аудио 2: AC3, 192 кбит/с, 48 КГц- eng

MediaInfo

Общее
Полное имя : D:\Koroli.leta.2013.HDRip.avi
Формат : AVI
Формат/Информация : Audio Video Interleave
Размер файла : 1,37 Гбайт
Продолжительность : 1 ч. 34 м.
Общий поток : 2069 Кбит/сек
Программа кодирования : VirtualDubModRus 1.5.10.2 (build 2542/release)
Библиотека кодирования : VirtualDubMod build 2542/release
Видео
Идентификатор : 0
Формат : MPEG-4 Visual
Профиль формата : Advanced Simple@L5
Параметр BVOP формата : 2
Параметр QPel формата : Нет
Параметр GMC формата : Без точки перехода
Параметр матрицы формата : Default (H.263)
Идентификатор кодека : XVID
Идентификатор кодека/Подсказка : XviD
Продолжительность : 1 ч. 34 м.
Битрейт : 1670 Кбит/сек
Ширина : 720 пикселей
Высота : 304 пикселя
Соотношение сторон : 2,35:1
Частота кадров : 23,976 кадра/сек
Цветовое пространство : YUV
Субдискретизация насыщенности : 4:2:0
Битовая глубина : 8 бит
Тип развёртки : Прогрессивная
Метод сжатия : С потерями
Бит/(Пиксели*Кадры) : 0.318
Размер потока : 1,10 Гбайт (81%)
Библиотека кодирования : XviD 1.2.1 (UTC 2008-12-04)
Аудио #1
Идентификатор : 1
Формат : AC-3
Формат/Информация : Audio Coding 3
Расширение режима : CM (complete main)
Параметр Endianness формата : Big
Идентификатор кодека : 2000
Продолжительность : 1 ч. 34 м.
Вид битрейта : Постоянный
Битрейт : 192 Кбит/сек
Каналы : 2 канала
Расположение каналов : Front: L R
Частота : 44,1 КГц
Битовая глубина : 16 бит
Метод сжатия : С потерями
Размер потока : 130 Мбайт (9%)
Выравнивание : Разделение по промежуткам
Продолжительность промежутка : 42 мс. (1,00 видеокадр)
Время предзагрузки промежутка : 500 мс.
Аудио #2
Идентификатор : 2
Формат : AC-3
Формат/Информация : Audio Coding 3
Расширение режима : CM (complete main)
Параметр Endianness формата : Big
Идентификатор кодека : 2000
Продолжительность : 1 ч. 34 м.
Вид битрейта : Постоянный
Битрейт : 192 Кбит/сек
Каналы : 2 канала
Расположение каналов : Front: L R
Частота : 48,0 КГц
Битовая глубина : 16 бит
Метод сжатия : С потерями
Размер потока : 130 Мбайт (9%)
Выравнивание : Разделение по промежуткам
Продолжительность промежутка : 42 мс. (1,00 видеокадр)
Время предзагрузки промежутка : 500 мс.

Скриншот c названием фильма

Скриншоты

Скачать

Скачать торрент!

Как скачивать? · Что такое торрент? · Рейтинг и ограничения

Сайт не распространяет и не хранит электронные версии произведений, а лишь предоставляет доступ к создаваемому пользователями каталогу ссылок на торрент-файлы, которые содержат только списки хеш-сумм

[Профиль] [ЛС]
Показать сообщения:    
Ответить на тему

Текущее время: Сегодня 14:14

Часовой пояс: GMT + 4



Вы не можете начинать темы
Вы не можете отвечать на сообщения
Вы не можете редактировать свои сообщения
Вы не можете удалять свои сообщения
Вы не можете голосовать в опросах
Вы не можете прикреплять файлы к сообщениям
Вы не можете скачивать файлы