Барби: Марипоса и Принцесса-фея / Barbie: Mariposa & The Fairy Princess [2013, мультфильм, BDRip] Dub

Ответить на тему
 
Автор Сообщение

user ®

Стаж: 12 лет

Сообщений: 15145

Пост Пост: #1 от 30-Окт-2013 22:25

[Цитировать]

Барби: Марипоса и Принцесса-фея / Barbie: Mariposa & The Fairy Princess- Страна: США
Жанр: мультфильм
Год выпуска: 2013
Продолжительность: 01:19:28
Перевод: Профессиональный (полное дублирование)
Субтитры: Нет-Описание: Марипосу ждут новые волшебные приключения, ведь она, как посол Сказочной страны, отправляется налаживать дружбу с соседями, Кристальными феями Светящейся долины. Ей не сразу удается найти общий язык с Королем, зато с ето застенчивой дочерью, принцессой Катанией, они быстро становятся настоящими подругами!
Вскоре из-за досадного недоразумения Марипосе и Зи приходится вернуться домой, где они сталкиваются с коварной волшебницей, намеревающейся уничтожить Светящуюся долину. Марипоса спешит на помощь подруге Катании, и вместе девочки побеждают зло и доказывают, что лучший способ найти верного друга - самому стать настоящим другом!
-Рейтинг:
-Мировая премьера: 20 июня 2013
Релиз на DVD: 29 августа 2013, «Двадцатый Век Фокс СНГ»,--Семпл-Качество: BDRip [BARBIE_MARIPOSA_FAIRY_PRINCESS_REMUX_HDCLUB]
Формат: AVI
Видео: 720x400 (1.80:1), 23.976 fps, XviD build 65 ~2242 kbps avg, 0.32 bit/pixel
Аудио: 48 kHz, AC3 Dolby Digital, 3/2 (L,C,R,l,r) + LFE ch, ~384 kbps
Субтитры: Отсутствуют

MI

Format : AVIFormat/Info : Audio Video InterleaveFile size : 1.45 GiBDuration : 1h 19mnOverall bit rate : 2 619 KbpsWriting application : VirtualDubMod 1.5.10.3 | www.virtualdub-fr.org || (build 2550/release)Writing library : VirtualDubMod build 2550/release
VideoID : 0Format : MPEG-4 VisualFormat profile : Advanced Simple@L5Format settings, BVOP : 2Format settings, QPel : NoFormat settings, GMC : No warppointsFormat settings, Matrix : CustomCodec ID : XVIDCodec ID/Hint : XviDDuration : 1h 19mnBit rate : 2 243 KbpsWidth : 720 pixelsHeight : 400 pixelsDisplay aspect ratio : 16:9Frame rate : 23.976 fpsColor space : YUVChroma subsampling : 4:2:0Bit depth : 8 bitsScan type : ProgressiveCompression mode : LossyBits/(Pixel*Frame) : 0.325Stream size : 1.24 GiB (86%)Writing library : XviD 65
AudioID : 1Format : AC-3Format/Info : Audio Coding 3Mode extension : CM (complete main)Format settings, Endianness : BigCodec ID : 2000Duration : 1h 16mnBit rate mode : ConstantBit rate : 384 KbpsChannel(s) : 6 channelsChannel positions : Front: L C R, Side: L R, LFESampling rate : 48.0 KHzBit depth : 16 bitsCompression mode : LossyStream size : 209 MiB (14%)Alignment : Split accross interleavesInterleave, duration : 44 ms (1.04 video frame)Interleave, preload duration : 500 ms
-
Скачать

Скачать торрент! Барби: Марипоса и Принцесса-фея / Barbie: Mariposa & The Fairy Princess [2013, мультфильм, BDRip] Dub

Как скачивать? · Что такое торрент? · Рейтинг и ограничения

Сайт не распространяет и не хранит электронные версии произведений, а лишь предоставляет доступ к создаваемому пользователями каталогу ссылок на торрент-файлы, которые содержат только списки хеш-сумм

[Профиль] [ЛС]
Показать сообщения:    
Ответить на тему

Текущее время: Сегодня 22:07

Часовой пояс: GMT + 4



Вы не можете начинать темы
Вы не можете отвечать на сообщения
Вы не можете редактировать свои сообщения
Вы не можете удалять свои сообщения
Вы не можете голосовать в опросах
Вы не можете прикреплять файлы к сообщениям
Вы не можете скачивать файлы