Шепот стен / Дыхание стен / Yeogo goedam / Whispering corridors (Ки-юнг Парк / Ki-hyeong Park) [1998, Южная Корея, Ужасы, драма, DVDRip] DVO

Ответить на тему
 
Автор Сообщение

user ®

Стаж: 11 лет

Сообщений: 15151

Пост Пост: #1 от 30-Окт-2013 22:25

[Цитировать]

Шепот стен / Дыхание стен / Yeogo goedam / Whispering corridors
Страна: Южная Корея
Жанр: Ужасы, драма
Год выпуска: 1998
Продолжительность: 01:45:35
Перевод: Профессиональный (двухголосый закадровый)
Cубтитры: нет
Режиссер: Ки-юнг Парк / Ki-hyeong Park
В ролях: Чхве Кан Хи, Ким Гю Ри, Мин-йонг Ким, Ким Рве Ха, Ким Ю Сок, Ли Ми Ён, Йонг-ньео Ли, Пак Чжин Хи, Йонг Су Парк, Йи Шин
Описание: Молодая учительница приходит преподавать в родную школу, где девять лет назад ее подруга покончила жизнь самоубийством. с тех пор каждые три года в стенах школы происходят странные смерти учителей. По гуляющей среди учениц легенде, это дело рук девочки-самоубийцы.
Доп. информация: Исходник DVD-9 R1 (СПАСИБО! wertrist )
За дорожку с переводом (СПАСИБО! silverhawk )
Сэмпл: http://multi-up.com/917194
Качество видео: DVDRip
Формат видео: AVI
Видео: XviD build 50, 688x384 (1.79:1), 25 fps, 1839 kbps avg
Аудио: MPEG Layer 3, 48 kHz, 2/0 (L,R) ch, 128.00 kbps avg

MediaInfo

General
Complete name : D:\Shepot.sten.1998.DVDRip-Dego.avi
Format : AVI
Format/Info : Audio Video Interleave
File size : 1.46 GiB
Duration : 1h 45mn
Overall bit rate : 1 978 Kbps
Writing application : VirtualDubMod 1.5.10.2 (build 2540/release)
Writing library : VirtualDubMod build 2540/release
Video
ID : 0
Format : MPEG-4 Visual
Format profile : AdvancedSimple@L5
Format settings, BVOP : Yes
Format settings, QPel : No
Format settings, GMC : No warppoints
Format settings, Matrix : Default (MPEG)
Codec ID : XVID
Codec ID/Hint : XviD
Duration : 1h 45mn
Bit rate : 1 840 Kbps
Width : 688 pixels
Height : 384 pixels
Display aspect ratio : 16/9
Frame rate : 25.000 fps
Resolution : 24 bits
Colorimetry : 4:2:0
Scan type : Progressive
Bits/(Pixel*Frame) : 0.279
Stream size : 1.36 GiB (93%)
Writing library : XviD 1.2.1 (UTC 2008-12-04)
Audio
ID : 1
Format : MPEG Audio
Format version : Version 1
Format profile : Layer 3
Codec ID : 55
Codec ID/Hint : MP3
Duration : 1h 45mn
Bit rate mode : Constant
Bit rate : 128 Kbps
Channel(s) : 2 channels
Sampling rate : 48.0 KHz
Resolution : 16 bits
Stream size : 96.7 MiB (6%)
Alignment : Aligned on interleaves
Interleave, duration : 40 ms (1.00 video frame)
Interleave, preload duration : 504 ms

Скриншоты

Скачать

Скачать торрент! Шепот стен / Дыхание стен / Yeogo goedam / Whispering corridors (Ки-юнг Парк / Ki-hyeong Park) [1998, Южная Корея, Ужасы, драма, DVDRip] DVO

Как скачивать? · Что такое торрент? · Рейтинг и ограничения

Сайт не распространяет и не хранит электронные версии произведений, а лишь предоставляет доступ к создаваемому пользователями каталогу ссылок на торрент-файлы, которые содержат только списки хеш-сумм

[Профиль] [ЛС]
Показать сообщения:    
Ответить на тему

Текущее время: Сегодня 04:07

Часовой пояс: GMT + 4



Вы не можете начинать темы
Вы не можете отвечать на сообщения
Вы не можете редактировать свои сообщения
Вы не можете удалять свои сообщения
Вы не можете голосовать в опросах
Вы не можете прикреплять файлы к сообщениям
Вы не можете скачивать файлы