Игла (Рашид Нугманов) [1988 г., Триллер, Драма, HDRip]

Ответить на тему
 
Автор Сообщение

LORN-V ®

Пол:

Стаж: 4 года 6 месяцев

Сообщений: 1186

Откуда: Munchen

Пост Пост: #1 от 30-Окт-2013 16:15

[Цитировать]

Игла -Основная информация:-Год выпуска: 1988
Жанр: Триллер, Драма
Продолжительность: 01:16:42
Режиссер: Рашид Нугманов-В ролях: В.Цой, Марина Смирнова, Петр Мамонов, Александр Баширова.-Описание:-Вернувшись в Алма-Ату, Моро не хочет, чтобы родители знали о его приезде, и в поисках временного пристанища вспоминает о девушке, которую он когда-то любил. Дина рада встрече, но Моро что-то настораживает в ней.
Наблюдая за ее странными знакомыми, Моро понимает, что Дина стала наркоманкой. Как спасти девушку? Моро увозит ее к морю, где Дина начинает выздоравливать. Однако после возвращения в город все начинается сначала. Моро решает расправиться с поставщиками наркотиков...-Доп. информация:-Качество: HDRip
Формат: AVI
Видео кодек: MPEG2
Аудио кодек: MPEG Audio
Видео: MPEG-4, 640 x 480 (4:3), 1201 kbps, 25 fps
Аудио: MPEG Audio, 48 kHz / 65,2 kbps

MI:

Общее
Полное имя                               : D:\Torrent_DviX\Igla.avi
Формат                                   : AVI
Формат/Информация                        : Audio Video Interleave
Размер файла                             : 699 Мбайт
Продолжительность                        : 1 ч. 16 м.
Режим общего битрейта                    : Переменный
Общий поток                              : 1279 Кбит/сек
Программа кодирования                    : Nandub v1.0rc2
Библиотека кодирования                   : Nandub build 1853/release
Видео
Идентификатор                            : 0
Формат                                   : MPEG-4 Visual
Параметр BVOP формата                    : 1
Параметр QPel формата                    : Нет
Параметр GMC формата                     : 2 точки перехода
Параметр матрицы формата                 : Default (H.263)
Режим смешивания                         : Сжатый битовый поток
Идентификатор кодека                     : DX50
Идентификатор кодека/Подсказка           : DivX 5
Продолжительность                        : 1 ч. 16 м.
Битрейт                                  : 1201 Кбит/сек
Ширина                                   : 640 пикселей
Высота                                   : 480 пикселей
Соотношение сторон                       : 4:3
Частота кадров                           : 25,000 кадров/сек
Цветовое пространство                    : YUV
Субдискретизация насыщенности            : 4:2:0
Битовая глубина                          : 8 бит
Тип развёртки                            : Прогрессивная
Метод сжатия                             : С потерями
Бит/(Пиксели*Кадры)                      : 0.156
Размер потока                            : 657 Мбайт (94%)
Библиотека кодирования                   : DivX 5.0.2 (UTC 2002-05-16)
Аудио
Идентификатор                            : 1
Формат                                   : MPEG Audio
Версия формата                           : Version 1
Профиль формата                          : Layer 3
Идентификатор кодека                     : 55
Идентификатор кодека/Подсказка           : MP3
Продолжительность                        : 1 ч. 16 м.
Вид битрейта                             : Переменный
Битрейт                                  : 65,2 Кбит/сек
Номинальный битрейт                      : 70,0 Кбит/сек
Каналы                                   : 1 канал
Частота                                  : 48,0 КГц
Метод сжатия                             : С потерями
Размер потока                            : 35,7 Мбайт (5%)
Выравнивание                             : Соединение по промежуткам
Продолжительность промежутка             : 24  мс. (0,60 видеокадр)
Время предзагрузки промежутка            : 497  мс.
Библиотека кодирования                   : LAME3.92
Настройки программы                      : -m m -V 4 -q 2 -lowpass 14.7 --abr 70
Скачать

Скачать торрент!

Как скачивать? · Что такое торрент? · Рейтинг и ограничения

Сайт не распространяет и не хранит электронные версии произведений, а лишь предоставляет доступ к создаваемому пользователями каталогу ссылок на торрент-файлы, которые содержат только списки хеш-сумм


_________________
[Профиль] [ЛС]
Показать сообщения:    
Ответить на тему

Текущее время: Сегодня 05:05

Часовой пояс: GMT + 4



Вы не можете начинать темы
Вы не можете отвечать на сообщения
Вы не можете редактировать свои сообщения
Вы не можете удалять свои сообщения
Вы не можете голосовать в опросах
Вы не можете прикреплять файлы к сообщениям
Вы не можете скачивать файлы