Заклятие / The Conjuring (Джеймс Ван / James Wan) [2013, США, Ужасы, триллер, биография, BDRip] Dub

Ответить на тему
 
Автор Сообщение

user ®

Стаж: 7 лет 7 месяцев

Сообщений: 20008

Пост Пост: #1 от 30-Окт-2013 16:05

[Цитировать]

Заклятие / The Conjuring- Год выхода: 2013
Выпущено: США / Evergreen Media, New Line Cinema, Safran Company, The
Жанр: ужасы, триллер, биография
Продолжительность: 01:51:58
Перевод: Профессиональный (полное дублирование) CEE
Субтитры: нет-Режиссер:
Джеймс Ван / James Wan-В ролях:
Вера Фармига (Lorraine Warren), Патрик Уилсон (Ed Warren), Рон Ливингстон (Roger Perron), Лили Тейлор (Carolyn Perron), Шэнли Касвелл (Andrea), Хейли МакФарланд (Nancy), Джои Кинг (Christine), Маккензи Фой (Cindy), Кайла Дивер (April), Шэннон Кук-Чун (Drew), Джон Бразертон (Brad)-Описание:
В основе картины лежит реальная история семьи Перрон, которые утверждали, что жили в окружении привидений, как добрых, так и злых. Духи населяли дом на Род-Айленде, в котором Перроны проживали в семидесятых годах XX века.-| Сэмпл |-Тип релиза: BDRip [The.Conjuring.2013.1080p.BluRay.AVC.DTS-HD.MA.5.1-PublicHD]
Контейнер: AVI
Видео: 688x288 (2.39:1), 23.976 fps, XviD build 73 ~797 kbps avg, 0.17 bit/pixel
Аудио: 48 kHz, MPEG Layer 3, 2 ch, ~128.00 kbps avg
-

Скриншоты

MediaInfo

General
Complete name                            : G:\Zaklyatie_2013_BDRip_745_by_Dalemake.avi
Format                                   : AVI
Format/Info                              : Audio Video Interleave
File size                                : 749 MiB
Duration                                 : 1h 51mn
Overall bit rate                         : 935 Kbps
Writing application                      : VirtualDubMod 1.5.10.3 | www.virtualdub-fr.org || (build 2550/release)
Writing library                          : VirtualDubMod build 2550/release
Video
ID                                       : 0
Format                                   : MPEG-4 Visual
Format profile                           : Advanced Simple@L5
Format settings, BVOP                    : 1
Format settings, QPel                    : No
Format settings, GMC                     : No warppoints
Format settings, Matrix                  : Custom
Codec ID                                 : XVID
Codec ID/Hint                            : XviD
Duration                                 : 1h 51mn
Bit rate                                 : 798 Kbps
Width                                    : 688 pixels
Height                                   : 288 pixels
Display aspect ratio                     : 2.40:1
Frame rate                               : 23.976 fps
Color space                              : YUV
Chroma subsampling                       : 4:2:0
Bit depth                                : 8 bits
Scan type                                : Progressive
Compression mode                         : Lossy
Bits/(Pixel*Frame)                       : 0.168
Stream size                              : 639 MiB (85%)
Writing library                          : XviD 73
Audio
ID                                       : 1
Format                                   : MPEG Audio
Format version                           : Version 1
Format profile                           : Layer 3
Codec ID                                 : 55
Codec ID/Hint                            : MP3
Duration                                 : 1h 51mn
Bit rate mode                            : Constant
Bit rate                                 : 128 Kbps
Channel(s)                               : 2 channels
Sampling rate                            : 48.0 KHz
Compression mode                         : Lossy
Stream size                              : 103 MiB (14%)
Alignment                                : Aligned on interleaves
Interleave, duration                     : 42 ms (1.00 video frame)
Interleave, preload duration             : 504 ms
Writing library                          : LAME3.99r
Encoding settings                        : -m s -V 4 -q 0 -lowpass 17 -b 128
-
Скачать

Скачать торрент!

Как скачивать? · Что такое торрент? · Рейтинг и ограничения

Сайт не распространяет и не хранит электронные версии произведений, а лишь предоставляет доступ к создаваемому пользователями каталогу ссылок на торрент-файлы, которые содержат только списки хеш-сумм

[Профиль] [ЛС]
Показать сообщения:    
Ответить на тему

Текущее время: Сегодня 06:15

Часовой пояс: GMT + 4



Вы не можете начинать темы
Вы не можете отвечать на сообщения
Вы не можете редактировать свои сообщения
Вы не можете удалять свои сообщения
Вы не можете голосовать в опросах
Вы не можете прикреплять файлы к сообщениям
Вы не можете скачивать файлы