Заклятие / The Conjuring (Джеймс Ван / James Wan) [2013, ужасы, триллер, биография, BDRip] DUB + Original Eng + Subs

Ответить на тему
 
Автор Сообщение

user ®

Стаж: 7 лет 7 месяцев

Сообщений: 20008

Пост Пост: #1 от 30-Окт-2013 11:50

[Цитировать]

Заклятие / The Conjuring
-
Страна: США
Жанр: ужасы, триллер, биография
Год выпуска: 2013
Продолжительность: 01:51:57-Перевод: Профессиональный (дублированный) /Лицензия Blu-Ray CEE/
Оригинальная дорожка: Английский
Cубтитры: Русские (форс. + полные), Английские (полные + SDH + SDH-COLORED)-Режиссер: Джеймс Ван / James Wan-В ролях: Вера Фармига / Vera Farmiga (Lorraine Warren), Патрик Уилсон / Patrick Wilson (Ed Warren), Рон Ливингстон / Ron Livingston (Roger Perron), Лили Тейлор / Lili Taylor (Carolyn Perron), Шэнли Касвелл / Shanley Caswell (Andrea), Хейли МакФарланд / Hayley McFarland (Nancy), Джои Кинг / Joey King (Christine), Маккензи Фой / Mackenzie Foy (Cindy), Кайла Дивер / Kyla Deaver (April), Шэннон Кук-Чун / Shannon Kook-Chun (Drew), Джон Бразертон / John Brotherton (Brad), Стерлинг Джеринс / Sterling Jerins (Judy Warren)-Описание:
В основе картины лежит реальная история семьи Перрон, которые утверждали, что жили в окружении привидений, как добрых, так и злых. Духи населяли дом на Род-Айленде, в котором Перроны проживали в семидесятых годах XX века.
- -Качество видео: BDRip /исходник:The Conjuring 2013 1080p Blu-ray AVC DTS-HD MA 5.1-TTG/
Формат видео: AVI-Видео: XviD / 720 x 304 / 2.37:1 / 1880 kbps / 23,976 fps
Аудио #1: AC3 Dolby Digital / 48 KHz / 448 kbps / 3/2 (L,C,R,l,r) + LFE ch /RUS/
Аудио #2: AC3 Dolby Digital / 48 KHz / 448 kbps / 3/2 (L,C,R,l,r) + LFE ch /ENG/-СЭМПЛ-Релиз: -

MediaInfo

General
Complete name : I:\Zaklyatie.2013.DUAL.BDRip.XviD.AC3.-HQ-ViDEO.avi
Format : AVI
Format/Info : Audio Video Interleave
Format profile : OpenDML
File size : 2.18 GiB
Duration : 1h 51mn
Overall bit rate : 2 794 Kbps
Movie name : The Conjuring (2013)
Director : Vaippp
Genre : Horror
Writing application : VirtualDubModRus 1.5.10.2 (build 2542/release)
Writing library : VirtualDubMod build 2542/release
Original source form/Name : Movie
Copyright : HQ-ViDEO
Comment : BDRip
Video
ID : 0
Format : MPEG-4 Visual
Format profile : Advanced Simple@L5
Format settings, BVOP : 1
Format settings, QPel : No
Format settings, GMC : No warppoints
Format settings, Matrix : Custom
Codec ID : XVID
Codec ID/Hint : XviD
Duration : 1h 51mn
Bit rate : 1 880 Kbps
Width : 720 pixels
Height : 304 pixels
Display aspect ratio : 2.35:1
Frame rate : 23.976 fps
Color space : YUV
Chroma subsampling : 4:2:0
Bit depth : 8 bits
Scan type : Progressive
Compression mode : Lossy
Bits/(Pixel*Frame) : 0.358
Stream size : 1.47 GiB (67%)
Writing library : XviD 73
Audio #1
ID : 1
Format : AC-3
Format/Info : Audio Coding 3
Mode extension : CM (complete main)
Format settings, Endianness : Big
Codec ID : 2000
Duration : 1h 51mn
Bit rate mode : Constant
Bit rate : 448 Kbps
Channel(s) : 6 channels
Channel positions : Front: L C R, Side: L R, LFE
Sampling rate : 48.0 KHz
Bit depth : 16 bits
Compression mode : Lossy
Stream size : 359 MiB (16%)
Alignment : Split accross interleaves
Interleave, duration : 42 ms (1.00 video frame)
Interleave, preload duration : 500 ms
Audio #2
ID : 2
Format : AC-3
Format/Info : Audio Coding 3
Mode extension : CM (complete main)
Format settings, Endianness : Big
Codec ID : 2000
Duration : 1h 51mn
Bit rate mode : Constant
Bit rate : 448 Kbps
Channel(s) : 6 channels
Channel positions : Front: L C R, Side: L R, LFE
Sampling rate : 48.0 KHz
Bit depth : 16 bits
Compression mode : Lossy
Stream size : 359 MiB (16%)
Alignment : Split accross interleaves
Interleave, duration : 42 ms (1.00 video frame)
Interleave, preload duration : 500 ms

Скриншоты



Скачать

Скачать торрент!

Как скачивать? · Что такое торрент? · Рейтинг и ограничения

Сайт не распространяет и не хранит электронные версии произведений, а лишь предоставляет доступ к создаваемому пользователями каталогу ссылок на торрент-файлы, которые содержат только списки хеш-сумм

[Профиль] [ЛС]
Показать сообщения:    
Ответить на тему

Текущее время: Сегодня 14:36

Часовой пояс: GMT + 4



Вы не можете начинать темы
Вы не можете отвечать на сообщения
Вы не можете редактировать свои сообщения
Вы не можете удалять свои сообщения
Вы не можете голосовать в опросах
Вы не можете прикреплять файлы к сообщениям
Вы не можете скачивать файлы