Копы в юбках / The Heat (Пол Фиг / Paul Feig) [2013, СШA / Twentieth Century Fox Film Corporation, Chernin Entertainment, Dune Entertainment, Комедия, криминал, боевик, детектив, BDRip-AVC] VO (Дмитрий Есарев)

Ответить на тему
 
Автор Сообщение

user ®

Стаж: 7 лет 7 месяцев

Сообщений: 20008

Пост Пост: #1 от 30-Окт-2013 11:50

[Цитировать]

Копы в юбках / The Heat
Страна: СШA / Twentieth Century Fox Film Corporation, Chernin Entertainment, Dune Entertainment
Жанр: Комедия, криминал, боевик, детектив
Год выпуска: 2013
Продолжительность: 02:00:20
Перевод: Одноголосый закадровый Дмитрий Есарев
Cубтитры: нет
Оригинальная аудиодорожка: нет
Режиссер: Пол Фиг / Paul Feig
В ролях: В ролях: Сандра Буллок, Мелисса МакКарти, Демиан Бишир, Марлон Уайанс, Майкл Рапапорт, Джейн Куртин, Спокен Ризонс, Дэн Баккедаль, Таран Киллэм, Майкл МакДональд
Описание: Описание: Агенту ФБР и бостонскому полицейскому доверено ответственное задание: выйти на след и обезвредить опасного преступника. И это даже хорошо, что копы — женщины, ведь бандит-то — русский. А непредсказуемости русской смекалки можно противопоставить только столь же непредсказуемую женскую логику.
Доп. информация: Работа со звуком - Perevodman
В фильме присутствует ненормативная лексика!
Сэмпл: http://multi-up.com/918322
Качество видео: BDRip-AVC
Формат видео: MKV
Видео: English, 1202 Кбит/сек, 960*400 (2,40:1), 23,962 кадра/сек, AVC
Аудио: Russian, 448 Кбит/сек, 48,0 КГц, 16 бит, 6 каналов, АС-3

MediaInfo

Общее
Уникальный идентификатор : 185842637639117090361138938072489161479 (0x8BCFFD75B4DB3B52AA39784F15C27307)
Полное имя : E:\МОНТАЖ\КОПЫ В ЮБКАХ\КОПЫ В ЮБКАХ (1).mkv
Формат : Matroska
Версия формата : Version 4 / Version 2
Размер файла : 12,2 Мбайт
Продолжительность : 1 м. 0 с.
Общий поток : 1683 Кбит/сек
Название фильма : HELLYWOOD - rip by potroks
Дата кодирования : UTC 2013-10-30 06:12:27
Программа кодирования : mkvmerge v6.0.0 ('Coming Up For Air') built on Jan 20 2013 09:52:00
Библиотека кодирования : libebml v1.3.0 + libmatroska v1.4.0
Видео
Идентификатор : 1
Формат : AVC
Формат/Информация : Advanced Video Codec
Профиль формата : High@L4.1
Параметр CABAC формата : Да
Параметр ReFrames формата : 12 кадров
Идентификатор кодека : V_MPEG4/ISO/AVC
Продолжительность : 1 м. 0 с.
Битрейт : 1202 Кбит/сек
Ширина : 960 пикселей
Высота : 400 пикселей
Соотношение сторон : 2,40:1
Режим частоты кадров : Постоянный
Частота кадров : 23,962 кадра/сек
Частота кадров в оригинале : 23,976 кадра/сек
Цветовое пространство : YUV
Субдискретизация насыщенности : 4:2:0
Битовая глубина : 8 бит
Тип развёртки : Прогрессивная
Бит/(Пиксели*Кадры) : 0.131
Размер потока : 8,69 Мбайт (71%)
Заголовок : The Heat
Язык : English
Default : Да
Forced : Нет
Аудио
Идентификатор : 2
Формат : AC-3
Формат/Информация : Audio Coding 3
Расширение режима : CM (complete main)
Параметр Endianness формата : Big
Идентификатор кодека : A_AC3
Продолжительность : 1 м. 0 с.
Вид битрейта : Постоянный
Битрейт : 448 Кбит/сек
Каналы : 6 каналов
Расположение каналов : Front: L C R, Side: L R, LFE
Частота : 48,0 КГц
Битовая глубина : 16 бит
Метод сжатия : С потерями
Задержка видео : 25 мс.
Размер потока : 3,24 Мбайт (27%)
Заголовок : Дмитрий Есарев
Язык : Russian
Default : Да
Forced : Да
Меню
00:00:00.000 : en:Chapter 20

Скриншот c названием фильма

Скриншоты

Скачать

Скачать торрент!

Как скачивать? · Что такое торрент? · Рейтинг и ограничения

Сайт не распространяет и не хранит электронные версии произведений, а лишь предоставляет доступ к создаваемому пользователями каталогу ссылок на торрент-файлы, которые содержат только списки хеш-сумм

[Профиль] [ЛС]
Показать сообщения:    
Ответить на тему

Текущее время: Сегодня 14:34

Часовой пояс: GMT + 4



Вы не можете начинать темы
Вы не можете отвечать на сообщения
Вы не можете редактировать свои сообщения
Вы не можете удалять свои сообщения
Вы не можете голосовать в опросах
Вы не можете прикреплять файлы к сообщениям
Вы не можете скачивать файлы