Bet She\'an / Бейт-Шеан (Авторы:Julien Soler/Жульен Соле, David Calvet/Давид Кальве, Bastien Letoile/Бастиан Летуал) [2012, мультфильм,короткометражка, DVDRip]

Ответить на тему
 
Автор Сообщение

user ®

Стаж: 13 лет

Сообщений: 15041

Пост Пост: #1 от 30-Окт-2013 08:40

[Цитировать]

Bet She'an / Бейт-Шеан
Страна: Франция
Жанр: мультфильм,короткометражка
Продолжительность: 0:08:10
Год выпуска: 2012
Перевод: Не требуется
Русские субтитры: нет
Авторы: Julien Soler/Жульен Соле, David Calvet/Давид Кальве, Bastien Letoile/Бастиан Летуал (кто конкретно режиссер, неизвестно)
Описание: В городе Бейт-Шеан, где человечество постепенно мутирует в ворон, скульптор решает оставить след о исчезающем виде.
Качество: DVDRip
Формат: AVI
Видео: 720x400 (1.80:1), 24 fps, XviD build 65 ~1761 kbps avg, 0.26 bit/pixel
Аудио: 48 kHz, MPEG Layer 3, 2 ch, ~128.00 kbps avg
Субтитры: отсутствуют

Подробные технические данные

GeneralComplete name : D:\MOVIE\Bet She'an.aviFormat : AVIFormat/Info : Audio Video InterleaveFile size : 111 MiBDuration : 8mn 10sOverall bit rate : 1 899 KbpsWriting application : VirtualDubMod 1.5.10.2 (build 2542/release)Writing library : VirtualDubMod build 2542/release
VideoID : 0Format : MPEG-4 VisualFormat profile : Advanced Simple@L5Format settings, BVOP : YesFormat settings, QPel : NoFormat settings, GMC : No warppointsFormat settings, Matrix : CustomCodec ID : XVIDCodec ID/Hint : XviDDuration : 8mn 10sBit rate : 1 762 KbpsWidth : 720 pixelsHeight : 400 pixelsDisplay aspect ratio : 16:9Frame rate : 24.000 fpsColor space : YUVChroma subsampling : 4:2:0Bit depth : 8 bitsScan type : ProgressiveCompression mode : LossyBits/(Pixel*Frame) : 0.255Stream size : 103 MiB (93%)Writing library : XviD 65
AudioID : 1Format : MPEG AudioFormat version : Version 1Format profile : Layer 3Codec ID : 55Codec ID/Hint : MP3Duration : 8mn 10sBit rate mode : ConstantBit rate : 128 KbpsChannel(s) : 2 channelsSampling rate : 48.0 KHzCompression mode : LossyStream size : 7.48 MiB (7%)Alignment : Aligned on interleavesInterleave, duration : 42 ms (1.00 video frame)Interleave, preload duration : 504 msWriting library : LAME3.98

Скриншоты




Скачать

Скачать торрент! Bet She\'an / Бейт-Шеан (Авторы:Julien Soler/Жульен Соле, David Calvet/Давид Кальве, Bastien Letoile/Бастиан Летуал) [2012, мультфильм,короткометражка, DVDRip]

Как скачивать? · Что такое торрент? · Рейтинг и ограничения

Сайт не распространяет и не хранит электронные версии произведений, а лишь предоставляет доступ к создаваемому пользователями каталогу ссылок на торрент-файлы, которые содержат только списки хеш-сумм

[Профиль] [ЛС]
Показать сообщения:    
Ответить на тему

Текущее время: Сегодня 04:06

Часовой пояс: GMT + 4



Вы не можете начинать темы
Вы не можете отвечать на сообщения
Вы не можете редактировать свои сообщения
Вы не можете удалять свои сообщения
Вы не можете голосовать в опросах
Вы не можете прикреплять файлы к сообщениям
Вы не можете скачивать файлы