Пробуждающийся лес / Wake Wood (Дэвид Китинг / David Keating) [2011, Ирландия, Великобритания, ужасы, триллер, драма, BDRip 1080p] MVO + original eng + subs (rus, eng)

Ответить на тему
 
Автор Сообщение

user ®

Стаж: 7 лет 7 месяцев

Сообщений: 20008

Пост Пост: #1 от 30-Окт-2013 08:40

[Цитировать]

Пробуждающийся лес / Wake Wood
Страна: Ирландия, Великобритания
Жанр: ужасы, триллер, драма
Год выпуска: 2011
Продолжительность: 01:30:07
Перевод: Профессиональный (многоголосый закадровый) [Лицензия]
Оригинальная аудиодорожка: английский
Режиссер: Дэвид Китинг / David Keating
В ролях: Ева Бертистл, Эйден Гиллен, Тимоти Сполл, Элла Коннолли, Рут МакКейб, Брин Глисон, Амелия Краули, Дэн Гордон, Томми МакАрдл, Джон МакАрдл
Описание: В день рождения маленькой дочки ветеринара произошла страшная трагедия: ребенка до смерти загрызла овчарка, которую выхаживал ее отец. Родители, раздавленные горем, переезжают в городок ВейкВуд.
Скоро они узнают, что в таинственном лесу за городом местные жители совершают странный обряд воскрешения, на три дня возвращая покойников к жизни. В обмен на клятву отца навсегда остаться в ВейкВуде, дочку его воскрешают. Тогда никто еще не знал, сколько зла принесет из инфернального мира девочка-зомби…
Сэмпл: http://multi-up.com/918297
Тип релиза: BDRip 1080p
Контейнер: MKV
Видео: 1920x816, 24fps, x264, 8910 kbps
Аудио: (RUS) AC-3 5.1, 48 kHz, 16 bits, 384 kbps
Аудио: (ENG) DTS 5.1, 48 kHz, 24 bits, 1509 kbps
Cубтитры: русские, английские

MediaInfo

Общее
Уникальный идентификатор : 187892444571095261424192828311348352313 (0x8D5AC4BE896460AA8A08F274464E9539)
Полное имя : Wake.Wood.2011.P.Rus.Eng.BDRip.1080p.mkv
Формат : Matroska
Версия формата : Version 2
Размер файла : 6,80 Гбайт
Продолжительность : 1 ч. 30 м.
Общий поток : 10,8 Мбит/сек
Дата кодирования : UTC 2013-10-30 03:40:36
Программа кодирования : mkvmerge v6.5.0 ('Isn't she lovely') built on Oct 20 2013 12:50:05
Библиотека кодирования : libebml v1.3.0 + libmatroska v1.4.1
Видео
Идентификатор : 1
Формат : AVC
Формат/Информация : Advanced Video Codec
Профиль формата : High@L4.1
Параметр CABAC формата : Да
Параметр ReFrames формата : 5 кадров
Идентификатор кодека : V_MPEG4/ISO/AVC
Продолжительность : 1 ч. 30 м.
Битрейт : 8910 Кбит/сек
Ширина : 1920 пикселей
Высота : 816 пикселей
Соотношение сторон : 2,35:1
Режим частоты кадров : Постоянный
Частота кадров : 24,000 кадра/сек
Цветовое пространство : YUV
Субдискретизация насыщенности : 4:2:0
Битовая глубина : 8 бит
Тип развёртки : Прогрессивная
Бит/(Пиксели*Кадры) : 0.237
Размер потока : 5,48 Гбайт (80%)
Библиотека кодирования : x264 core 115 r2008 4c552d8
Настройки программы : cabac=1 / ref=5 / deblock=1:0:0 / analyse=0x3:0x133 / me=umh / subme=7 / psy=1 / psy_rd=1.00:0.00 / mixed_ref=1 / me_range=16 / chroma_me=1 / trellis=1 / 8x8dct=1 / cqm=0 / deadzone=21,11 / fast_pskip=0 / chroma_qp_offset=-2 / threads=12 / sliced_threads=0 / nr=0 / decimate=1 / interlaced=0 / bluray_compat=0 / constrained_intra=0 / bframes=3 / b_pyramid=2 / b_adapt=1 / b_bias=0 / direct=1 / weightb=1 / open_gop=0 / weightp=2 / keyint=250 / keyint_min=23 / scenecut=40 / intra_refresh=0 / rc_lookahead=40 / rc=2pass / mbtree=1 / bitrate=8910 / ratetol=1.0 / qcomp=0.60 / qpmin=0 / qpmax=69 / qpstep=4 / cplxblur=20.0 / qblur=0.5 / ip_ratio=1.40 / aq=1:1.00
Язык : English
Default : Да
Forced : Нет
Аудио #1
Идентификатор : 2
Формат : AC-3
Формат/Информация : Audio Coding 3
Расширение режима : CM (complete main)
Параметр Endianness формата : Big
Идентификатор кодека : A_AC3
Продолжительность : 1 ч. 30 м.
Вид битрейта : Постоянный
Битрейт : 384 Кбит/сек
Каналы : 6 каналов
Расположение каналов : Front: L C R, Side: L R, LFE
Частота : 48,0 КГц
Битовая глубина : 16 бит
Метод сжатия : С потерями
Размер потока : 248 Мбайт (4%)
Язык : Russian
Default : Да
Forced : Нет
Аудио #2
Идентификатор : 3
Формат : DTS
Формат/Информация : Digital Theater Systems
Режим : 16
Параметр Endianness формата : Big
Идентификатор кодека : A_DTS
Продолжительность : 1 ч. 30 м.
Вид битрейта : Постоянный
Битрейт : 1509 Кбит/сек
Каналы : 6 каналов
Расположение каналов : Front: L C R, Side: L R, LFE
Частота : 48,0 КГц
Битовая глубина : 24 бит
Метод сжатия : С потерями
Размер потока : 973 Мбайт (14%)
Язык : English
Default : Нет
Forced : Нет
Текст #1
Идентификатор : 4
Формат : UTF-8
Идентификатор кодека : S_TEXT/UTF8
Идентификатор кодека/Информация : UTF-8 Plain Text
Язык : Russian
Default : Нет
Forced : Нет
Текст #2
Идентификатор : 5
Формат : UTF-8
Идентификатор кодека : S_TEXT/UTF8
Идентификатор кодека/Информация : UTF-8 Plain Text
Язык : English
Default : Нет
Forced : Нет
Меню
00:00:00.000 : en:00:00:00.000
00:04:33.625 : en:00:04:33.625
00:08:25.250 : en:00:08:25.250
00:13:02.291 : en:00:13:02.291
00:16:42.082 : en:00:16:42.082
00:21:20.875 : en:00:21:20.875
00:26:13.040 : en:00:26:13.040
00:29:30.665 : en:00:29:30.665
00:35:25.708 : en:00:35:25.708
00:41:07.208 : en:00:41:07.208
00:45:35.125 : en:00:45:35.125
00:50:09.291 : en:00:50:09.291
00:55:52.458 : en:00:55:52.458
01:00:51.291 : en:01:00:51.291
01:05:38.041 : en:01:05:38.041
01:10:28.457 : en:01:10:28.457
01:15:23.125 : en:01:15:23.125
01:19:19.916 : en:01:19:19.916
01:22:56.250 : en:01:22:56.250
01:25:31.000 : en:01:25:31.000

Скриншот с названием

Скриншоты

Скачать

Скачать торрент!

Как скачивать? · Что такое торрент? · Рейтинг и ограничения

Сайт не распространяет и не хранит электронные версии произведений, а лишь предоставляет доступ к создаваемому пользователями каталогу ссылок на торрент-файлы, которые содержат только списки хеш-сумм

[Профиль] [ЛС]
Показать сообщения:    
Ответить на тему

Текущее время: Сегодня 04:03

Часовой пояс: GMT + 4



Вы не можете начинать темы
Вы не можете отвечать на сообщения
Вы не можете редактировать свои сообщения
Вы не можете удалять свои сообщения
Вы не можете голосовать в опросах
Вы не можете прикреплять файлы к сообщениям
Вы не можете скачивать файлы