Повелитель страниц / The Pagemaster (Пиксоут Хант / Pixote Hunt, Джо Джонстон / Joe Johnston) [1994, мультфильм, фэнтези, мелодрама, BDRip] MVO + 4xAVO (Сербин, Визгунов, Дохалов, Пронин) + Eng

Ответить на тему
 
Автор Сообщение

user ®

Стаж: 12 лет

Сообщений: 15145

Пост Пост: #1 от 29-Окт-2013 22:05

[Цитировать]

Повелитель страниц / The Pagemaster«All The Adventure Your Imagination Can Hold»- Страна: США
Жанр: мультфильм, фэнтези, мелодрама, комедия, детектив, приключения, семейный
Год выпуска: 1994
Продолжительность: 01:15:28
Перевод: Профессиональный (многоголосый, закадровый)
Перевод 2: Авторский (одноголосый, закадровый) - Ю. Сербин
Перевод 3: Авторский (одноголосый, закадровый) - С. Визгунов
Перевод 4: Авторский (одноголосый, закадровый) - В. Дохалов
Перевод 5: Авторский (одноголосый, закадровый) - А. Пронин
Субтитры: Нет-Режиссер: Пиксоут Хант / Pixote Hunt, Джо Джонстон / Joe Johnston-Описание: Ричайрд Тайлер заходит в библиотеку и, благодаря волшебству, попадает на страницы самых лучших детских книг. Вместе с любимыми героями он участвует в мультипликационных приключениях, так как сам стал мультяшкой.-Рейтинг:

MPAA: - Нет возрастных ограничений-Бюджет: $27 000 000
Сборы в США: $13 670 688
Мировая премьера: 23 ноября 1994--Качество: BDRip [The.Pagemaster.1994.1080p.BD-Remux.3хRus.Ukr.Eng.HDCLUB]
Формат: AVI
Видео: 720x384 (1.88:1), 23.976 fps, XviD build 65 ~2303 kbps avg, 0.35 bit/pixel
Аудио: 48 kHz, AC3 Dolby Digital, 3/2 (L,C,R,l,r) + LFE ch, ~448 kbps - Mvo
Аудио 2: 48 kHz, AC3 Dolby Digital, 3/2 (L,C,R,l,r) + LFE ch, ~448 kbps - Сербин (Отдельным файлом)
Аудио 3: 48 kHz, AC3 Dolby Digital, 3/2 (L,C,R,l,r) + LFE ch, ~448 kbps - Визгунов (Отдельным файлом)
Аудио 4: 48 kHz, AC3, 2/0 (L,R) ch, ~192.00 kbps - Дохалов (Отдельным файлом)
Аудио 5: 48 kHz, AC3, 2/0 (L,R) ch, ~192.00 kbps - Пронин (Отдельным файлом)
Аудио 6: 48 kHz, AC3 Dolby Digital, 3/2 (L,C,R,l,r) + LFE ch, ~448 kbps - Eng (Отдельным файлом)
Субтитры: Отсутствуют

MI

Format : AVIFormat/Info : Audio Video InterleaveFile size : 1.46 GiBDuration : 1h 15mnOverall bit rate : 2 761 KbpsWriting application : VirtualDubMod 1.5.10.3 | www.virtualdub-fr.org || (build 2550/release)Writing library : VirtualDubMod build 2550/release
VideoID : 0Format : MPEG-4 VisualFormat profile : Advanced Simple@L5Format settings, BVOP : 2Format settings, QPel : NoFormat settings, GMC : No warppointsFormat settings, Matrix : CustomCodec ID : XVIDCodec ID/Hint : XviDDuration : 1h 15mnBit rate : 2 304 KbpsWidth : 720 pixelsHeight : 384 pixelsDisplay aspect ratio : 1.85:1Frame rate : 23.976 fpsColor space : YUVChroma subsampling : 4:2:0Bit depth : 8 bitsScan type : ProgressiveCompression mode : LossyBits/(Pixel*Frame) : 0.347Stream size : 1.21 GiB (83%)Writing library : XviD 65
AudioID : 1Format : AC-3Format/Info : Audio Coding 3Mode extension : CM (complete main)Format settings, Endianness : BigCodec ID : 2000Duration : 1h 15mnBit rate mode : ConstantBit rate : 448 KbpsChannel(s) : 6 channelsChannel positions : Front: L C R, Side: L R, LFESampling rate : 48.0 KHzBit depth : 16 bitsCompression mode : LossyStream size : 242 MiB (16%)Alignment : Split accross interleavesInterleave, duration : 42 ms (1.00 video frame)Interleave, preload duration : 500 ms
-
Скачать

Скачать торрент! Повелитель страниц / The Pagemaster (Пиксоут Хант / Pixote Hunt, Джо Джонстон / Joe Johnston) [1994, мультфильм, фэнтези, мелодрама, BDRip] MVO + 4xAVO (Сербин, Визгунов, Дохалов, Пронин) + Eng

Как скачивать? · Что такое торрент? · Рейтинг и ограничения

Сайт не распространяет и не хранит электронные версии произведений, а лишь предоставляет доступ к создаваемому пользователями каталогу ссылок на торрент-файлы, которые содержат только списки хеш-сумм

[Профиль] [ЛС]
Показать сообщения:    
Ответить на тему

Текущее время: Сегодня 20:24

Часовой пояс: GMT + 4



Вы не можете начинать темы
Вы не можете отвечать на сообщения
Вы не можете редактировать свои сообщения
Вы не можете удалять свои сообщения
Вы не можете голосовать в опросах
Вы не можете прикреплять файлы к сообщениям
Вы не можете скачивать файлы