Конфликт (Гарри Бардин) [1983 г., Мультфильм, Военный, DVDRip]

Ответить на тему
 
Автор Сообщение

user ®

Стаж: 7 лет 7 месяцев

Сообщений: 20008

Пост Пост: #1 от 29-Окт-2013 22:05

[Цитировать]

КонфликтСтрана: СССР
Жанр: Мультфильм, Военный
Продолжительность: 00:07:08
Год выпуска: 1983
Выпущено: «Союзмультфильм»
Режиссёр Гарри Бардин
Русские субтитры: нетОписание:Объёмный.
Герои фильма — обыкновенные спички. Ссора, начавшаяся из-за пустяка, перешла в настоящее сражение...
В фильме использована музыка композитора Алессандро Марчелло «Концерт для гобоя и струнных ре минор, 2-я часть "Адажио"» (Alessandro Marcello – Concerto for Oboe and Strings in d-moll, 2nd movement ‘Adagio’) http://www.youtube.com/watch?v=LyaKbm1McDMНаграды• 1983 год — Диплом участника МКФ документальных и короткометражных фильмов в Бильбао (Испания).
• 1983 год — Диплом МКФ в Тампере (Финляндия).

Команда

Режиссёр Гарри Бардин
сценарист Гарри Бардин
художник-постановщик Николай Титов
аниматоры: Ирина Собинова-Кассиль, Сергей Косицын, Наталия Дабижа, Алла Соловьёва
оператор Сергей Хлебников
директор Григорий Хмара
композитор Сергей Анашкин
звукооператор Владимир Кутузов
редактор Татьяна Папорова
Художники-оформители: Александр Горбачёв, Валентин Ладыгин, Виктор Гришин, Наталия Гринберг, Михаил Колтунов
монтажёр Надежда Трещёва
Качество: DVDRip
Формат: AVI
Видео: 720x544 (1.32:1), 25 fps, XviD build 64 ~2396 kbps avg, 0.24 bit/pixel
Аудио: 48 kHz, AC3 Dolby Digital, 2/0 (L,R) ch, ~192 kbps
Субтитры: отсутствуют

Подробные технические данные

ОбщееПолное имя : D:\Мульты\Konflikt_(Garry_Bardin).aviФормат : AVIФормат/Информация : Audio Video InterleaveРазмер файла : 133 МбайтПродолжительность : 7 м. 8 с.Общий поток : 2599 Кбит/секПрограмма кодирования : VirtualDubMod 1.5.10.2 (build 2540/release)Библиотека кодирования : VirtualDubMod build 2540/release
ВидеоИдентификатор : 0Формат : MPEG-4 VisualПрофиль формата : Advanced Simple@L5Параметр BVOP формата : 2Параметр QPel формата : НетПараметр GMC формата : Без точки переходаПараметр матрицы формата : ВыборочнаяИдентификатор кодека : XVIDИдентификатор кодека/Подсказка : XviDПродолжительность : 7 м. 8 с.Битрейт : 2397 Кбит/секШирина : 720 пикселейВысота : 544 пикселяСоотношение сторон : 4:3Частота кадров : 25,000 кадров/секЦветовое пространство : YUVСубдискретизация насыщенности : 4:2:0Битовая глубина : 8 битТип развёртки : ПрогрессивнаяМетод сжатия : С потерямиБит/(Пиксели*Кадры) : 0.245Размер потока : 122 Мбайт (92%)Библиотека кодирования : XviD 64
АудиоИдентификатор : 1Формат : AC-3Формат/Информация : Audio Coding 3Расширение режима : CM (complete main)Идентификатор кодека : 2000Продолжительность : 7 м. 8 с.Вид битрейта : ПостоянныйБитрейт : 192 Кбит/секКаналы : 2 каналаРасположение каналов : Front: L RЧастота : 48,0 КГцБитовая глубина : 16 битМетод сжатия : С потерямиРазмер потока : 9,81 Мбайт (7%)Выравнивание : Разделение по промежуткамПродолжительность промежутка : 40 мс. (1,00 видеокадр)Время предзагрузки промежутка : 500 мс.
Subtitles: Not Present

Скриншоты

Скачать

Скачать торрент!

Как скачивать? · Что такое торрент? · Рейтинг и ограничения

Сайт не распространяет и не хранит электронные версии произведений, а лишь предоставляет доступ к создаваемому пользователями каталогу ссылок на торрент-файлы, которые содержат только списки хеш-сумм

[Профиль] [ЛС]
Показать сообщения:    
Ответить на тему

Текущее время: Сегодня 05:08

Часовой пояс: GMT + 4



Вы не можете начинать темы
Вы не можете отвечать на сообщения
Вы не можете редактировать свои сообщения
Вы не можете удалять свои сообщения
Вы не можете голосовать в опросах
Вы не можете прикреплять файлы к сообщениям
Вы не можете скачивать файлы