Тихоокеанский рубеж / Pacific Rim (Гильермо дель Торо / Guillermo del Toro) [2013, США, фантастика, боевик, приключения, BDRip 720p] Dub (iTunes) + AVO (Юрий Сербин) + Dub (Украинский) + Sub Rus, Eng + Original Eng

Ответить на тему
 
Автор Сообщение

user ®

Стаж: 7 лет 7 месяцев

Сообщений: 20008

Пост Пост: #1 от 29-Окт-2013 22:05

[Цитировать]

Тихоокеанский рубеж
Pacific Rim
--Страна: США
Жанр: фантастика, боевик, приключения
Год выпуска: 2013
Продолжительность: 02:11:17--Перевод: Профессиональный (дублированный) iTunes
Перевод 2: Авторский (одноголосый закадровый) Юрий Сербин
Перевод 3: Профессиональный (дублированный) Украинский
Cубтитры: русские, английские
Оригинальная аудиодорожка: английская--Режиссер: Гильермо дель Торо / Guillermo del Toro--В ролях: Чарли Ханнэм, Идрис Эльба, Ринко Кикути, Роберт Казински, Макс Мартини, Чарли Дэй, Берн Горман, Клифтон Коллинз мл., Рон Перлман, Диего Клаттенхофф--Описание: Когда из морских глубин поднялись легионы чудовищ, известных как Кайдзу, началась война, которой суждено было забрать миллионы жизней и свести «человеческие ресурсы» почти к нулю всего за несколько лет. Чтобы сражаться с пришельцами, было создано специальное оружие: огромные роботы, названные Джегерами, они управлялись одновременно двумя пилотами, чьи сознания соединены с помощью нейронной связи. Но даже Джегеры оказываются почти бессильны перед лицом безжалостных Кайдзу. На грани поражения у защитников человечества нет выбора, кроме как обратиться к двум весьма сомнительным героям — никому не нужному бывшему пилоту и неопытному стажеру — которые объединились, чтобы повести в бой некогда легендарного, но сейчас устаревшего Джегера. Вместе они оказываются единственной надеждой человечества, последним препятствием перед надвигающимся апокалипсисом.
--Доп. информация: Сохранены оригинальные чаптеры.--Сэмпл
Тип релиза: BDRip 720p
Контейнер: MKV
Видео: MPEG4 Video (H264) 1280x720 23.976fps 6000Kbps
Аудио: Dolby AC3 48000Hz 6ch 384kbps (iTunes)
Аудио 2: Dolby AC3 48000Hz 6ch 448kbps (Юрий Сербин)
Аудио 3: Dolby AC3 48000Hz 2ch 192kbps (Украинский)
Аудио 4: DTS 48000Hz 6ch 1509Kbps (Eng)-
-

MediaInfo

General
Unique ID                      : 238317955810413565122316923066538303568 (0xB34A5E659DCB4614ABDF085D3BECA050)
Complete name                  : F:\TORRENTS\Pacific.Rim.2013.BluRay.720p.x264.mkv
Format                         : Matroska
Format version                 : Version 4 / Version 2
File size                      : 7.83 GiB
Duration                       : 2h 11mn
Overall bit rate               : 8 534 Kbps
Movie name                     : Pacific Rim (2013) by Killbrain
Encoded date                   : UTC 2013-10-28 13:14:41
Writing application            : mkvmerge v6.5.0 ('Isn't she lovely') built on Oct 20 2013 12:50:05
Writing library                : libebml v1.3.0 + libmatroska v1.4.1
Video
ID                             : 1
Format                         : AVC
Format/Info                    : Advanced Video Codec
Format profile                 : High@L4.1
Format settings, CABAC         : Yes
Format settings, ReFrames      : 9 frames
Codec ID                       : V_MPEG4/ISO/AVC
Duration                       : 2h 11mn
Bit rate                       : 6 000 Kbps
Width                          : 1 280 pixels
Height                         : 720 pixels
Display aspect ratio           : 16:9
Frame rate mode                : Constant
Frame rate                     : 23.976 fps
Color space                    : YUV
Chroma subsampling             : 4:2:0
Bit depth                      : 8 bits
Scan type                      : Progressive
Bits/(Pixel*Frame)             : 0.272
Stream size                    : 5.35 GiB (68%)
Writing library                : x264 core 132 r2323+704+51 d571b1c tMod [8-bit@4:2:0 X86_64]
Encoding settings              : cabac=1 / ref=9 / deblock=1:-3:-3 / analyse=0x3:0x113 / me=umh / subme=11 / psy=1 / fade_compensate=0.00 / psy_rd=1.05:0.00 / mixed_ref=1 / me_range=32 / chroma_me=1 / trellis=2 / 8x8dct=1 / cqm=0 / deadzone=21,11 / fast_pskip=0 / chroma_qp_offset=-2 / threads=18 / lookahead_threads=3 / sliced_threads=0 / nr=0 / decimate=0 / interlaced=0 / bluray_compat=0 / constrained_intra=0 / fgo=0 / bframes=8 / b_pyramid=2 / b_adapt=2 / b_bias=0 / direct=3 / weightb=1 / open_gop=0 / weightp=2 / keyint=240 / keyint_min=24 / scenecut=40 / intra_refresh=0 / rc_lookahead=240 / rc=2pass / mbtree=1 / bitrate=6000 / ratetol=1.0 / qcomp=0.70 / qpmin=0 / qpmax=69 / qpstep=4 / cplxblur=20.0 / qblur=0.5 / ip_ratio=1.10 / aq=4:0.85 / aq-sensitivity=10.00 / aq-factor=1.00:1.00:1.00 / aq2=0 / aq3=0
Language                       : English
Default                        : Yes
Forced                         : No
Audio #1
ID                             : 2
Format                         : AC-3
Format/Info                    : Audio Coding 3
Mode extension                 : CM (complete main)
Format settings, Endianness    : Big
Codec ID                       : A_AC3
Duration                       : 2h 11mn
Bit rate mode                  : Constant
Bit rate                       : 384 Kbps
Channel count                  : 6 channels
Channel positions              : Front: L C R, Side: L R, LFE
Sampling rate                  : 48.0 KHz
Bit depth                      : 16 bits
Compression mode               : Lossy
Stream size                    : 361 MiB (4%)
Title                          : 384 iTunes
Language                       : Russian
Default                        : Yes
Forced                         : No
Audio #2
ID                             : 3
Format                         : AC-3
Format/Info                    : Audio Coding 3
Mode extension                 : CM (complete main)
Format settings, Endianness    : Big
Codec ID                       : A_AC3
Duration                       : 2h 11mn
Bit rate mode                  : Constant
Bit rate                       : 448 Kbps
Channel count                  : 6 channels
Channel positions              : Front: L C R, Side: L R, LFE
Sampling rate                  : 48.0 KHz
Bit depth                      : 16 bits
Compression mode               : Lossy
Stream size                    : 421 MiB (5%)
Title                          : Serbin 448
Language                       : Russian
Default                        : No
Forced                         : No
Audio #3
ID                             : 4
Format                         : AC-3
Format/Info                    : Audio Coding 3
Mode extension                 : CM (complete main)
Format settings, Endianness    : Big
Codec ID                       : A_AC3
Duration                       : 2h 11mn
Bit rate mode                  : Constant
Bit rate                       : 192 Kbps
Channel count                  : 2 channels
Channel positions              : Front: L R
Sampling rate                  : 48.0 KHz
Bit depth                      : 16 bits
Compression mode               : Lossy
Stream size                    : 180 MiB (2%)
Language                       : Ukrainian
Default                        : No
Forced                         : No
Audio #4
ID                             : 5
Format                         : DTS
Format/Info                    : Digital Theater Systems
Mode                           : 16
Format settings, Endianness    : Big
Codec ID                       : A_DTS
Duration                       : 2h 11mn
Bit rate mode                  : Constant
Bit rate                       : 1 509 Kbps
Channel count                  : 6 channels
Channel positions              : Front: L C R, Side: L R, LFE
Sampling rate                  : 48.0 KHz
Bit depth                      : 24 bits
Compression mode               : Lossy
Stream size                    : 1.38 GiB (18%)
Language                       : English
Default                        : No
Forced                         : No
Text #1
ID                             : 6
Format                         : UTF-8
Codec ID                       : S_TEXT/UTF8
Codec ID/Info                  : UTF-8 Plain Text
Title                          : Full, Voronine
Language                       : Russian
Default                        : No
Forced                         : No
Text #2
ID                             : 7
Format                         : UTF-8
Codec ID                       : S_TEXT/UTF8
Codec ID/Info                  : UTF-8 Plain Text
Title                          : Full, BD US
Language                       : English
Default                        : No
Forced                         : No
Text #3
ID                             : 8
Format                         : UTF-8
Codec ID                       : S_TEXT/UTF8
Codec ID/Info                  : UTF-8 Plain Text
Title                          : SDH, BD US
Language                       : English
Default                        : No
Forced                         : No
Text #4
ID                             : 9
Format                         : UTF-8
Codec ID                       : S_TEXT/UTF8
Codec ID/Info                  : UTF-8 Plain Text
Title                          : SDH-COLOR, mod. BD US
Language                       : English
Default                        : No
Forced                         : No
Menu
00:00:00.000                   : :Chapter 01
00:09:09.131                   : :Chapter 02
00:18:35.823                   : :Chapter 03
00:23:04.341                   : :Chapter 04
00:33:00.395                   : :Chapter 05
00:42:44.895                   : :Chapter 06
00:50:01.665                   : :Chapter 07
01:01:09.666                   : :Chapter 08
01:14:45.105                   : :Chapter 09
01:22:21.311                   : :Chapter 10
01:32:09.941                   : :Chapter 11
01:41:55.609                   : :Chapter 12
01:51:37.857                   : :Chapter 13
01:59:21.028                   : :Chapter 14
02:02:17.830                   : :Chapter 15

Скриншоты

-

-
-
Скачать

Скачать торрент!

Как скачивать? · Что такое торрент? · Рейтинг и ограничения

Сайт не распространяет и не хранит электронные версии произведений, а лишь предоставляет доступ к создаваемому пользователями каталогу ссылок на торрент-файлы, которые содержат только списки хеш-сумм

[Профиль] [ЛС]
Показать сообщения:    
Ответить на тему

Текущее время: Сегодня 02:18

Часовой пояс: GMT + 4



Вы не можете начинать темы
Вы не можете отвечать на сообщения
Вы не можете редактировать свои сообщения
Вы не можете удалять свои сообщения
Вы не можете голосовать в опросах
Вы не можете прикреплять файлы к сообщениям
Вы не можете скачивать файлы