Ловушка для Золушки / Trap for Cinderella (Иэн Софтли / Iain Softley) [2013, Великобритания, триллер, драма, криминал, DVDRip-AVC] DVO (Zelesk и Анна Завразина)

Ответить на тему
 
Автор Сообщение

user ®

Стаж: 7 лет 7 месяцев

Сообщений: 20008

Пост Пост: #1 от 29-Окт-2013 22:05

[Цитировать]

Ловушка для Золушки / Trap for Cinderella
Страна: Великобритания
Жанр: триллер, драма, криминал
Год выпуска: 2013
Продолжительность: 01:35:50
Перевод: Любительский (двухголосый закадровый) Zelesk и Анна Завразина
Оригинальная аудиодорожка: нет
Режиссер: Иэн Софтли / Iain Softley
В ролях: Анайрин Барнард, Фрэнсис де ла Тур, Таппенс Мидлтон, Александра Роач, Керри Фокс, Стэнли Вебер, Алекс Дженнингс, Эрих Редман, Элизабет Хили, Тим Уоллерс
Описание: Когда просыпаешься после ужасной трагедии и совсем не помнишь себя, то так тяжело понять кем ты была до того, как потеряла память. А если при этом тебе говорят, что ты не та, чье лицо носишь сейчас, но ощущения свидетельствуют об обратном, то душевных терзаний не избежать. А если говорят, что ты сама устроила этот пожар с целью убийства? Именно в таких условиях приходится реабилитироваться юной особе после несчастного случая. Она должна унаследовать целое состояние из-за которого и началась вся эта криминальная история, разобраться поможет только логика и фрагменты памяти.
Доп. информация: Фильм снят по одноименной повести французского писателя Себастьена Жапризо.
Сэмпл: http://multi-up.com/918145
Качество видео: DVDRip-AVC (исходник неизвестен)
Формат видео: MKV
Видео: Advanced Video Codec, 720х400, 16:9, 25.000 fps, 839 Kbps
Аудио: AC-3, 48 KHz, 192 Kbps, 2 channels (L, R)

MediaInfo

General
Unique ID : 247784433373271247597626235317826580391 (0xBA698BC6917762538FEB0925006F6FA7)
Complete name : Trap.for.Cinderella.2013.mkv
Format : Matroska
Format version : Version 4 / Version 2
File size : 721 MiB
Duration : 1h 35mn
Overall bit rate : 1 052 Kbps
Encoded date : UTC 2013-10-29 17:42:33
Writing application : mkvmerge v6.5.0 ('Isn't she lovely') built on Oct 20 2013 12:50:05
Writing library : libebml v1.3.0 + libmatroska v1.4.1
Video #1
ID : 1
Format : AVC
Format/Info : Advanced Video Codec
Format profile : High@L3.0
Format settings, CABAC : Yes
Format settings, ReFrames : 4 frames
Codec ID : V_MPEG4/ISO/AVC
Duration : 1h 35mn
Bit rate : 839 Kbps
Width : 720 pixels
Height : 400 pixels
Display aspect ratio : 16:9
Frame rate mode : Constant
Frame rate : 25.000 fps
Color space : YUV
Chroma subsampling : 4:2:0
Bit depth : 8 bits
Scan type : Progressive
Bits/(Pixel*Frame) : 0.116
Stream size : 575 MiB (80%)
Writing library : x264 core 133 r2334 a3ac64b
Encoding settings : cabac=1 / ref=9 / deblock=1:0:0 / analyse=0x3:0x113 / me=umh / subme=9 / psy=1 / psy_rd=1.15:0.05 / mixed_ref=1 / me_range=32 / chroma_me=1 / trellis=2 / 8x8dct=1 / cqm=0 / deadzone=21,11 / fast_pskip=1 / chroma_qp_offset=-2 / threads=6 / lookahead_threads=1 / sliced_threads=0 / nr=0 / decimate=1 / interlaced=0 / bluray_compat=0 / constrained_intra=0 / bframes=9 / b_pyramid=2 / b_adapt=2 / b_bias=0 / direct=1 / weightb=1 / open_gop=0 / weightp=2 / keyint=250 / keyint_min=25 / scenecut=60 / intra_refresh=0 / rc_lookahead=40 / rc=crf / mbtree=1 / crf=19.0 / qcomp=0.60 / qpmin=0 / qpmax=69 / qpstep=4 / ip_ratio=1.30 / aq=2s1.00
Default : Yes
Forced : No
Audio #2
ID : 2
Format : AC-3
Format/Info : Audio Coding 3
Mode extension : CM (complete main)
Format settings, Endianness : Big
Codec ID : A_AC3
Duration : 1h 35mn
Bit rate mode : Constant
Bit rate : 192 Kbps
Channel(s) : 2 channels
Channel positions : Front: L R
Sampling rate : 48.0 KHz
Bit depth : 16 bits
Compression mode : Lossy
Stream size : 132 MiB (18%)
Title : Zelesk & Anna Zavrazina
Language : Russian
Default : Yes
Forced : No

Скриншот c названием фильма

Скриншоты

Торрент-файл перезалит: рип заменен, заменена аудиодорожка
Скачать

Скачать торрент!

Как скачивать? · Что такое торрент? · Рейтинг и ограничения

Сайт не распространяет и не хранит электронные версии произведений, а лишь предоставляет доступ к создаваемому пользователями каталогу ссылок на торрент-файлы, которые содержат только списки хеш-сумм

[Профиль] [ЛС]
Показать сообщения:    
Ответить на тему

Текущее время: Сегодня 20:35

Часовой пояс: GMT + 4



Вы не можете начинать темы
Вы не можете отвечать на сообщения
Вы не можете редактировать свои сообщения
Вы не можете удалять свои сообщения
Вы не можете голосовать в опросах
Вы не можете прикреплять файлы к сообщениям
Вы не можете скачивать файлы