Роль (Константин Лопушанский) [2013, Драма, SATRip]

Ответить на тему
 
Автор Сообщение

user ®

Стаж: 7 лет 7 месяцев

Сообщений: 20008

Пост Пост: #1 от 29-Окт-2013 18:55

[Цитировать]

Роль
Жанр: Драма
Год выпуска: 2013
Продолжительность: 01:52:20
Режиссёр: Константин Лопушанский
В ролях: Максим Суханов, Мария Ярвенхельми. Леонид Мозговой, Анастасия Шевелёва, Дмитрий Сутырин
Описание: Черно-белый фильм, события в котором происходят в Петрограде в начале 20-х годов прошлого века. История талантливого актёра, одержимого идеями Серебряного века, и в согласии с идеями символизма он готов прожить чужую жизнь, а точнее, сыграть ее словно роль. Актёр попадает в плен к красным и оказывается как две капли воды похож на красного командира, который собирается его расстрелять. После смерти командира артист решает сыграть роль погибшего, согласно новому театральному веянию — когда часть театральной общественности считала, что театр надо выводить в жизнь, на улицы, что театр должен слиться с жизнью.
Сэмпл: http://multi-up.com/918093
Качество видео: SATRip
Формат видео: AVI
Видео: 704x368 (1.91:1), 25 fps, XviD build 65 ~1506 kbps avg, 0.23 bit/pixel
Аудио: 48 kHz, AC3 Dolby Digital, 2/0 (L,R) ch, ~256.00 kbps avg

MediaInfo

General
Complete name : D:\MOVIE\РОЛЬ.avi
Format : AVI
Format/Info : Audio Video Interleave
File size : 1.39 GiB
Duration : 1h 52mn
Overall bit rate : 1 773 Kbps
Genre : Drama
Writing application : VirtualDubMod 1.5.10.2 (build 2542/release)
Writing library : VirtualDubMod build 2542/release
Video
ID : 0
Format : MPEG-4 Visual
Format profile : Advanced Simple@L5
Format settings, BVOP : Yes
Format settings, QPel : No
Format settings, GMC : No warppoints
Format settings, Matrix : Custom
Codec ID : XVID
Codec ID/Hint : XviD
Duration : 1h 52mn
Bit rate : 1 507 Kbps
Width : 704 pixels
Height : 368 pixels
Display aspect ratio : 1.913
Frame rate : 25.000 fps
Color space : YUV
Chroma subsampling : 4:2:0
Bit depth : 8 bits
Scan type : Progressive
Compression mode : Lossy
Bits/(Pixel*Frame) : 0.233
Stream size : 1.18 GiB (85%)
Writing library : XviD 65
Audio
ID : 1
Format : AC-3
Format/Info : Audio Coding 3
Mode extension : CM (complete main)
Format settings, Endianness : Big
Codec ID : 2000
Duration : 1h 52mn
Bit rate mode : Constant
Bit rate : 256 Kbps
Channel(s) : 2 channels
Channel positions : Front: L R
Sampling rate : 48.0 KHz
Bit depth : 16 bits
Compression mode : Lossy
Stream size : 205 MiB (14%)
Alignment : Split accross interleaves
Interleave, duration : 40 ms (1.00 video frame)
Interleave, preload duration : 500 ms

Скриншот c названием фильма

Скриншоты

Скачать

Скачать торрент!

Как скачивать? · Что такое торрент? · Рейтинг и ограничения

Сайт не распространяет и не хранит электронные версии произведений, а лишь предоставляет доступ к создаваемому пользователями каталогу ссылок на торрент-файлы, которые содержат только списки хеш-сумм

[Профиль] [ЛС]
Показать сообщения:    
Ответить на тему

Текущее время: Сегодня 02:22

Часовой пояс: GMT + 4



Вы не можете начинать темы
Вы не можете отвечать на сообщения
Вы не можете редактировать свои сообщения
Вы не можете удалять свои сообщения
Вы не можете голосовать в опросах
Вы не можете прикреплять файлы к сообщениям
Вы не можете скачивать файлы