История Ёносуке / A Story of Yonosuke (Сюити Окита / Shuichi Okita) [2013, Япония, Драма, комедия, DVDRip] VO D.I.M.

Ответить на тему
 
Автор Сообщение

user ®

Стаж: 11 лет

Сообщений: 15151

Пост Пост: #1 от 29-Окт-2013 12:35

[Цитировать]

История Ёносуке / A Story of Yonosuke
Страна: Япония
Жанр: Драма, комедия
Год выпуска: 2013
Продолжительность: 02:40:49
Перевод: Одноголосый закадровый D.I.M.
Cубтитры: нет
Режиссер: Сюити Окита / Shuichi Okita
В ролях: Кенго Кора / Kengo Kora
Юрико Ёситака / Yuriko Yoshitaka
Го Аяно / Go Ayano
Сосуке Икемацу / Sosuke Ikematsu
Аюми Ито / Ayumi Ito
Описание: В жизни каждого человека встречаются люди,
которые входят в нашу жизнь на очень короткое время,
но оставляют воспоминания, которые остаются на всю жизнь.
Фильм снят по роману Ёсиды Сюити, отмеченному различными наградами.
Этот фильм - история Ёносуке Ёкомити, рассказанная
от лица людей, которые были с ним знакомы.
Это семьдесят второй фильм с моим переводом и озвучкой, выложенный здесь.
Любители душевного кино могут найти для себя что-то интересное.
Сэмпл: http://multi-up.com/918009
Качество видео: DVDRip
Формат видео: AVI
Видео: 720*400 (16:9), 23,976 fps, MPEG-4 Visual (XviD) ~ 1081 kbps avg, 0.157 bit/pixel
Аудио: MPEG Audio Layer 3, 48000Hz, stereo, 128kbps

MediaInfo

Общее
Полное имя : D:\TORENT\РАЗДАЧИ (РИПЫ)\A Story of Yonosuke.avi
Формат : AVI
Формат/Информация : Audio Video Interleave
Размер файла : 1,37 Гбайт
Продолжительность : 2 ч. 40 м.
Общий поток : 1218 Кбит/сек
Программа кодирования : VirtualDubModRus 1.5.10.2 (build 2542/release)
Библиотека кодирования : VirtualDubMod build 2542/release
Видео
Идентификатор : 0
Формат : MPEG-4 Visual
Профиль формата : Advanced Simple@L5
Параметр BVOP формата : 1
Параметр QPel формата : Нет
Параметр GMC формата : Без точки перехода
Параметр матрицы формата : Выборочная
Идентификатор кодека : XVID
Идентификатор кодека/Подсказка : XviD
Продолжительность : 2 ч. 40 м.
Битрейт : 1081 Кбит/сек
Ширина : 720 пикс.
Высота : 400 пикс.
Соотношение сторон : 16:9
Частота кадров : 23,976 кадр/сек
Цветовое пространство : YUV
Подвыборка цветности : 4:2:0
Битовая глубина : 8 бит
Тип развёртки : Прогрессивная
Метод сжатия : С потерями
Бит/(Пиксели*Кадры) : 0.157
Размер потока : 1,21 Гбайт (89%)
Библиотека кодирования : XviD 63
Аудио
Идентификатор : 1
Формат : MPEG Audio
Версия формата : Version 1
Профиль формата : Layer 3
Режим : Joint stereo
Расширение режима : MS Stereo
Идентификатор кодека : 55
Идентификатор кодека/Подсказка : MP3
Продолжительность : 2 ч. 40 м.
Вид битрейта : Постоянный
Битрейт : 128 Кбит/сек
Канал(ы) : 2 канала(ов)
Частота : 48,0 КГц
Метод сжатия : С потерями
Размер потока : 147 Мбайт (10%)
Выравнивание : Соединение по промежуткам
Продолжительность промежутка : 42 мс. (1,00 видеокадр)
Время предзагрузки промежутка : 504 ms
Язык : Japanese

Скриншот c названием фильма

Скриншоты

Скачать

Скачать торрент! История Ёносуке / A Story of Yonosuke (Сюити Окита / Shuichi Okita) [2013, Япония, Драма, комедия, DVDRip] VO D.I.M.

Как скачивать? · Что такое торрент? · Рейтинг и ограничения

Сайт не распространяет и не хранит электронные версии произведений, а лишь предоставляет доступ к создаваемому пользователями каталогу ссылок на торрент-файлы, которые содержат только списки хеш-сумм

[Профиль] [ЛС]
Показать сообщения:    
Ответить на тему

Текущее время: Сегодня 17:18

Часовой пояс: GMT + 4



Вы не можете начинать темы
Вы не можете отвечать на сообщения
Вы не можете редактировать свои сообщения
Вы не можете удалять свои сообщения
Вы не можете голосовать в опросах
Вы не можете прикреплять файлы к сообщениям
Вы не можете скачивать файлы