Винни Пух: Рождественский Пух / Winnie the Pooh: A Very Merry Pooh Year (Тед Хеннинг / Ted Henning, Карл Джеерс / Karl Geurs) [2002, мультфильм, семейный, BDRip] DVO (Гланц и Казакова)

Ответить на тему
 
Автор Сообщение

user ®

Стаж: 13 лет

Сообщений: 15041

Пост Пост: #1 от 29-Окт-2013 08:30

[Цитировать]

Винни Пух - Рождественский Пух
Winnie the Pooh - A Very Merry Pooh Year
- Год выпуска: 2002
Страна: США
Киностудия: Walt Disney
Жанр: Анимационный, приключения, комедия, детский, семейный
Продолжительность: 01:03:52-Перевод: Профессиональный (двухголосый закадровый) - П.Гланц и Т.Казакова
Оригинальная аудио дорожка: нет-Режиссер: Карл Джеерс / Karl Geurs, Тэд Хэннинг / Ted Henning-Описание:
В лес пришло Рождество и весёлая компания: Тигра, Пух, Ослик, кенгурёнок Крошка Ру... Они не могут пропустить такой праздник. И, как всегда, любое мероприятие у этой компании не проходит без приключений. Симпатичный рождественский мультфильм доставит удовольствие и детям и взрослым!- MPAA: - Нет возрастных ограничений
-Качество: BDRip [Winnie.the.Pooh.A.Very.Merry.Pooh.Year.2002.BLUEBIRD]
Формат: AVI
Видео: 656x496 (1.32:1), 23.976 fps, XviD build 65 ~1492 kbps avg, 0.19 bit/pixel

Аудио: 48 kHz, MPEG Layer 3, 2 ch, ~128.00 kbps

Отчет MI

GeneralComplete name : Winnie the Pooh A Very Merry Pooh Year (745) Olu6ka.aviFormat : AVIFormat/Info : Audio Video InterleaveFile size : 745 MiBDuration : 1h 3mnOverall bit rate : 1 630 KbpsWriting application : VirtualDubMod 1.5.10.3 |Writing library : VirtualDubMod build 2550/release
VideoID : 0Format : MPEG-4 VisualFormat profile : Advanced Simple@L5Format settings, BVOP : 1Format settings, QPel : NoFormat settings, GMC : No warppointsFormat settings, Matrix : CustomCodec ID : XVIDCodec ID/Hint : XviDDuration : 1h 3mnBit rate : 1 492 KbpsWidth : 656 pixelsHeight : 496 pixelsDisplay aspect ratio : 4:3Frame rate : 23.976 fpsColor space : YUVChroma subsampling : 4:2:0Bit depth : 8 bitsScan type : ProgressiveCompression mode : LossyBits/(Pixel*Frame) : 0.191Stream size : 682 MiB (92%)Writing library : XviD 65
AudioID : 1Format : MPEG AudioFormat version : Version 1Format profile : Layer 3Codec ID : 55Codec ID/Hint : MP3Duration : 1h 3mnBit rate mode : ConstantBit rate : 128 KbpsChannel(s) : 2 channelsSampling rate : 48.0 KHzCompression mode : LossyStream size : 58.5 MiB (8%)Alignment : Aligned on interleavesInterleave, duration : 42 ms (1.00 video frame)Interleave, preload duration : 504 msWriting library : LAME3.99rEncoding settings : -m s -V 4 -q 2 -lowpass 17 -b 128

Дополнительно

Релиз от группы
Скачать

Скачать торрент! Винни Пух: Рождественский Пух / Winnie the Pooh: A Very Merry Pooh Year (Тед Хеннинг / Ted Henning, Карл Джеерс / Karl Geurs) [2002, мультфильм, семейный, BDRip] DVO (Гланц и Казакова)

Как скачивать? · Что такое торрент? · Рейтинг и ограничения

Сайт не распространяет и не хранит электронные версии произведений, а лишь предоставляет доступ к создаваемому пользователями каталогу ссылок на торрент-файлы, которые содержат только списки хеш-сумм

[Профиль] [ЛС]
Показать сообщения:    
Ответить на тему

Текущее время: Сегодня 12:17

Часовой пояс: GMT + 4



Вы не можете начинать темы
Вы не можете отвечать на сообщения
Вы не можете редактировать свои сообщения
Вы не можете удалять свои сообщения
Вы не можете голосовать в опросах
Вы не можете прикреплять файлы к сообщениям
Вы не можете скачивать файлы