12 месяцев (Александр Баршак) [2013, комедия, DVDRip]

Ответить на тему
 
Автор Сообщение

user ®

Стаж: 7 лет 7 месяцев

Сообщений: 20008

Пост Пост: #1 от 29-Окт-2013 08:30

[Цитировать]

12 месяцев
Жанр: комедия
Год выпуска: 2013
Продолжительность: 01:32:36
Режиссёр: Александр Баршак
В ролях: Алеса Качер, Иван Дорн, Максим Юдин, Александр Головин, Армен Джигарханян, Екатерина Гусева, Максим Виторган, Мария Сёмкина, Виктор Бычков, Артур Смольянинов, Эдуард Чекмазов, Аристарх Венес, Ксения Дмитриева, Александр Емельяненко, Андрей Ширман, Евгений Малкин (II), Илья Ковальчук, Аскольд Запашный, Эдгард Запашный
Описание: О чем может мечтать провинциальная девчонка, приехавшая покорять Москву? У главной героини фильма Маши Смирновой уже имеется список заветных желаний: грудь третьего размера, роскошная шуба, отдельная квартира, любовь и карьера звезды шоу-бизнеса. Когда в руки девушки попадает сказочная книга «12 месяцев», её мечты неожиданно начинают сбываться! Но у каждой медали есть оборотная сторона: желания Маши причиняют вред ее любимым людям. Теперь девушка должна сама бескорыстно творить «чудеса» для других, чтобы спасти своих близких и вернуть свою настоящую любовь.
Сэмпл: http://multi-up.com/917949
Качество видео: DVDRip
Формат видео: AVI
Видео: 720x304 (2.35:1), 25.000 fps, XviD build 65 ~1987 kbps avg, 0.363 bit/pixel
Аудио: 48 kHz, AC3 Dolby Digital, 6 ch, 256 kbps avg

MediaInfo

General
Complete name : E:\Download\Dvenadcatj.mesyacev.2013.DVDRip.avi
Format : AVI
Format/Info : Audio Video Interleave
File size : 1.46 GiB
Duration : 1h 32mn
Overall bit rate : 2 252 Kbps
Writing application : VirtualDubMod 1.5.10.3 | www.virtualdub-fr.org || (build 2550/release)
Writing library : VirtualDubMod build 2550/release
Video
ID : 0
Format : MPEG-4 Visual
Format profile : Advanced Simple@L5
Format settings, BVOP : 1
Format settings, QPel : No
Format settings, GMC : No warppoints
Format settings, Matrix : Custom
Codec ID : XVID
Codec ID/Hint : XviD
Duration : 1h 32mn
Bit rate : 1 987 Kbps
Width : 720 pixels
Height : 304 pixels
Display aspect ratio : 2.35:1
Frame rate : 25.000 fps
Color space : YUV
Chroma subsampling : 4:2:0
Bit depth : 8 bits
Scan type : Progressive
Compression mode : Lossy
Bits/(Pixel*Frame) : 0.363
Stream size : 1.29 GiB (88%)
Writing library : XviD 65
Audio
ID : 1
Format : AC-3
Format/Info : Audio Coding 3
Mode extension : CM (complete main)
Format settings, Endianness : Big
Codec ID : 2000
Duration : 1h 32mn
Bit rate mode : Constant
Bit rate : 256 Kbps
Channel(s) : 6 channels
Channel positions : Front: L C R, Side: L R, LFE
Sampling rate : 48.0 KHz
Bit depth : 16 bits
Compression mode : Lossy
Stream size : 170 MiB (11%)
Alignment : Split accross interleaves
Interleave, duration : 40 ms (1.00 video frame)
Interleave, preload duration : 500 ms

Скриншот c названием фильма

Скриншоты

Скачать

Скачать торрент!

Как скачивать? · Что такое торрент? · Рейтинг и ограничения

Сайт не распространяет и не хранит электронные версии произведений, а лишь предоставляет доступ к создаваемому пользователями каталогу ссылок на торрент-файлы, которые содержат только списки хеш-сумм

[Профиль] [ЛС]
Показать сообщения:    
Ответить на тему

Текущее время: Сегодня 08:59

Часовой пояс: GMT + 4



Вы не можете начинать темы
Вы не можете отвечать на сообщения
Вы не можете редактировать свои сообщения
Вы не можете удалять свои сообщения
Вы не можете голосовать в опросах
Вы не можете прикреплять файлы к сообщениям
Вы не можете скачивать файлы