Школа монстров: 13 Желаний / Monster High: 13 Wishes (Стив Сакс / Steve Sacks) [2013, мультфильм, HDRip] Dub

Ответить на тему
 
Автор Сообщение

user ®

Стаж: 12 лет

Сообщений: 15145

Пост Пост: #1 от 29-Окт-2013 02:10

[Цитировать]

Школа монстров: 13 Желаний / Monster High: 13 Wishes- Страна: США
Жанр: мультфильм
Год выпуска: 2013
Продолжительность: 01:13:21
Перевод: Профессиональный (полное дублирование)
Субтитры: Нет-Режиссер: Стив Сакс / Steve Sacks-Описание: В «Школе монстров» начался новый учебный год, и младшая сестричка Клодин Вулф, Хоулин, надеется стать самой КЛЫКассной девчонкой в школе. Ее мечта о популярности оказывается гораздо реальнее, чем она думала, после встречи с джинном по имени Джиджи, который дает ей загадать не 3, а целых 13 желаний!
Но вскоре героини понимают, что с желаниями следует быть осторожнее, ведь каждое имеет не только плюсы, но и минусы! А тем временем жизнь в Школе монстров переворачивается с ног на голову! Вместе с Фрэнки Штейн, Клодин Вулф, Дракулаурой и их ужасно классными подружками вас ждет настоящая магическая феерия в духе Школы монстров... и фейерверк убойных приемчиков на каждом шагу!
-Рейтинг:
-Релиз на DVD: 3 октября 2013, «Двадцатый Век Фокс СНГ»--Семпл-Качество: HDRip [MONSTER.HIGH.13.WISHES.1080p_CMEGRoup]
Формат: AVI
Видео: 656x368 (1.78:1), 23.976 fps, XviD build 65 ~1282 kbps avg, 0.22 bit/pixel
Аудио: 48 kHz, MPEG Layer 3, 2 ch, ~128.00 kbps avg
Субтитры: Отсутствуют

MI

Format : AVIFormat/Info : Audio Video InterleaveFile size : 745 MiBDuration : 1h 13mnOverall bit rate : 1 420 KbpsWriting application : VirtualDubMod 1.5.10.3 | www.virtualdub-fr.org || (build 2550/release)Writing library : VirtualDubMod build 2550/release
VideoID : 0Format : MPEG-4 VisualFormat profile : Advanced Simple@L5Format settings, BVOP : 2Format settings, QPel : NoFormat settings, GMC : No warppointsFormat settings, Matrix : CustomCodec ID : XVIDCodec ID/Hint : XviDDuration : 1h 13mnBit rate : 1 283 KbpsWidth : 656 pixelsHeight : 368 pixelsDisplay aspect ratio : 16:9Frame rate : 23.976 fpsColor space : YUVChroma subsampling : 4:2:0Bit depth : 8 bitsScan type : ProgressiveCompression mode : LossyBits/(Pixel*Frame) : 0.222Stream size : 673 MiB (90%)Writing library : XviD 65
AudioID : 1Format : MPEG AudioFormat version : Version 1Format profile : Layer 3Codec ID : 55Codec ID/Hint : MP3Duration : 1h 13mnBit rate mode : ConstantBit rate : 128 KbpsChannel(s) : 2 channelsSampling rate : 48.0 KHzCompression mode : LossyStream size : 67.2 MiB (9%)Alignment : Aligned on interleavesInterleave, duration : 42 ms (1.00 video frame)Interleave, preload duration : 504 msWriting library : LAME3.99rEncoding settings : -m s -V 4 -q 2 -lowpass 17 -b 128
-
Скачать

Скачать торрент! Школа монстров: 13 Желаний / Monster High: 13 Wishes (Стив Сакс / Steve Sacks) [2013, мультфильм, HDRip] Dub

Как скачивать? · Что такое торрент? · Рейтинг и ограничения

Сайт не распространяет и не хранит электронные версии произведений, а лишь предоставляет доступ к создаваемому пользователями каталогу ссылок на торрент-файлы, которые содержат только списки хеш-сумм

[Профиль] [ЛС]
Показать сообщения:    
Ответить на тему

Текущее время: Сегодня 12:52

Часовой пояс: GMT + 4



Вы не можете начинать темы
Вы не можете отвечать на сообщения
Вы не можете редактировать свои сообщения
Вы не можете удалять свои сообщения
Вы не можете голосовать в опросах
Вы не можете прикреплять файлы к сообщениям
Вы не можете скачивать файлы