Беги, Милка, беги! / Bhaag Milkha Bhaag (Ракеш Омпракаш Мехра / Rakeysh Omprakash Mehra) [2013, Индия, Драма, Биография, История, Спорт, BDRip 720p] Sub (Rus, Eng)

Ответить на тему
 
Автор Сообщение

user ®

Стаж: 12 лет

Сообщений: 15092

Пост Пост: #1 от 29-Окт-2013 02:10

[Цитировать]

Беги, Милка, беги! / Bhaag Milkha Bhaag«Now you will see his Real Story» Страна: Индия
Студия: Rakeysh Omprakash Mehra Pictures, Viacom18 Motion Pictures
Жанр: драма, биография, история, спорт
Год выпуска: 2013
Продолжительность: 03:06:24
Перевод: Субтитры
Cубтитры: русские, английские
Оригинальная аудиодорожка: Хинди
Режиссер: Ракеш Омпракаш Мехра / Rakeysh Omprakash Mehra
В ролях: Фархан Ахтар, Сонам Капур, Паван Малхотра, Арт Малик, Джаптедж Сингх, Йоградж Сингх, Ребекка Бридс, Дивья Датта
Описание: Биографический фильм, основанный на истории жизни бывшего индийского спортсмена Милки Сингха. Золотой медалист в беге на 200 и 400 метров на Азиатских играх 1958 года, золотой медалист Игр Содружества независимой Индии, обладатель бронзовой медали на Олимпиаде в Риме в 1960 году — Милка Сингх продал свою биографию всего за одну рупию.
В фильме затронуты разные стороны жизни Милки - его детство, первая любовь, упорный путь к спортивным победам.
Перевод и тайминг субтитров: Soniya
Сборка: Vasantsena
Релиз форума indomania
en.wikipedia.org
Тип релиза: BDRip-AVC 720p (исходник: Blu-Ray - x264 - 720p - DTS - [DDR] )
Контейнер: MKV
Видео: x264, 1 280х544 (2.35:1), 24.000 fps, 4 599 Kbps
Аудио: DTS, 6 ch, 48 kHz, 1510 kbps
Формат субтитров: SRT
Запрещено использование релиза в коммерческих целях, а также использование субтитров без согласия автора.
При размещении на других сайтах просьба полностью сохранять оформление.

MediaInfo

General
Unique ID : 202337193319772273480281189919380450470 (0x9838B9D7B6BD9BC2B41D5E7D0B37ACA6)
Complete name : D:\Begi.Milka.Begi.2013.x264.BDRip.720p.indomania.mkv
Format : Matroska
Format version : Version 2
File size : 7.96 GiB
Duration : 3h 6mn
Overall bit rate : 6 110 Kbps
Encoded date : UTC 2013-10-28 09:14:13
Writing application : mkvmerge v2.7.0 ('Do It Again') built on Apr 15 2009 00:27:10
Writing library : libebml v0.7.7 + libmatroska v0.8.1
Video
ID : 1
Format : AVC
Format/Info : Advanced Video Codec
Format profile : High@L4.1
Format settings, CABAC : Yes
Format settings, ReFrames : 7 frames
Codec ID : V_MPEG4/ISO/AVC
Duration : 3h 6mn
Bit rate : 4 599 Kbps
Width : 1 280 pixels
Height : 544 pixels
Display aspect ratio : 2.35:1
Frame rate : 24.000 fps
Color space : YUV
Chroma subsampling : 4:2:0
Bit depth : 8 bits
Scan type : Progressive
Bits/(Pixel*Frame) : 0.275
Stream size : 5.83 GiB (73%)
Title : PuLi - BMB - 720p - DDR
Writing library : x264 core 133 r2334 a3ac64b
Encoding settings : cabac=1 / ref=8 / deblock=1:0:0 / analyse=0x3:0x113 / me=umh / subme=8 / psy=1 / psy_rd=1.00:0.15 / mixed_ref=1 / me_range=16 / chroma_me=1 / trellis=1 / 8x8dct=1 / cqm=0 / deadzone=21,11 / fast_pskip=1 / chroma_qp_offset=-3 / threads=18 / lookahead_threads=3 / sliced_threads=0 / nr=0 / decimate=1 / interlaced=0 / bluray_compat=0 / constrained_intra=0 / bframes=3 / b_pyramid=1 / b_adapt=2 / b_bias=0 / direct=3 / weightb=1 / open_gop=0 / weightp=2 / keyint=240 / keyint_min=24 / scenecut=40 / intra_refresh=0 / rc_lookahead=50 / rc=2pass / mbtree=1 / bitrate=4599 / ratetol=1.0 / qcomp=0.60 / qpmin=0 / qpmax=69 / qpstep=4 / cplxblur=20.0 / qblur=0.5 / vbv_maxrate=62500 / vbv_bufsize=78125 / nal_hrd=none / ip_ratio=1.40 / aq=1:1.00
Language : Hindi
Default : Yes
Forced : No
Audio
ID : 2
Format : DTS
Format/Info : Digital Theater Systems
Codec ID : A_DTS
Duration : 3h 6mn
Bit rate mode : Constant
Bit rate : 1 510 Kbps
Channel(s) : 6 channels
Channel positions : Front: L C R, Side: L R, LFE
Sampling rate : 48.0 KHz
Bit depth : 24 bits
Compression mode : Lossy
Delay relative to video : 11ms
Stream size : 1.97 GiB (25%)
Title : PuLi - DTS 5.1Ch - DDR
Language : Hindi
Default : Yes
Forced : No
Text #1
ID : 3
Format : UTF-8
Codec ID : S_TEXT/UTF8
Codec ID/Info : UTF-8 Plain Text
Language : Russian
Default : Yes
Forced : No
Text #2
ID : 4
Format : UTF-8
Codec ID : S_TEXT/UTF8
Codec ID/Info : UTF-8 Plain Text
Title : English Subs - DDR
Language : English
Default : No
Forced : No

Скриншот c названием фильма

Скачать

Скачать торрент! Беги, Милка, беги! / Bhaag Milkha Bhaag (Ракеш Омпракаш Мехра / Rakeysh Omprakash Mehra) [2013, Индия, Драма, Биография, История, Спорт, BDRip 720p] Sub (Rus, Eng)

Как скачивать? · Что такое торрент? · Рейтинг и ограничения

Сайт не распространяет и не хранит электронные версии произведений, а лишь предоставляет доступ к создаваемому пользователями каталогу ссылок на торрент-файлы, которые содержат только списки хеш-сумм

[Профиль] [ЛС]
Показать сообщения:    
Ответить на тему

Текущее время: Сегодня 18:06

Часовой пояс: GMT + 4



Вы не можете начинать темы
Вы не можете отвечать на сообщения
Вы не можете редактировать свои сообщения
Вы не можете удалять свои сообщения
Вы не можете голосовать в опросах
Вы не можете прикреплять файлы к сообщениям
Вы не можете скачивать файлы