Тайный брат / Undercover Brother (Малкольм Д. Ли / Malcolm D. Lee) [2002, США, Комедия, боевик, WEB-DL 720p] MVO + DVO + Original Eng

Ответить на тему
 
Автор Сообщение

user ®

Стаж: 7 лет 7 месяцев

Сообщений: 20008

Пост Пост: #1 от 29-Окт-2013 02:10

[Цитировать]

Тайный брат / Undercover Brother- Страна: США
Жанр: Комедия, боевик
Год выпуска: 2002
Продолжительность: 01:26:00
Перевод 1: Профессиональный (многоголосый закадровый)
Перевод 2: Профессиональный (двухголосый закадровый)
Cубтитры: нет
Оригинальная аудиодорожка: английский-Режиссер: Малкольм Д. Ли / Malcolm D. Lee
В ролях: Эдди Гриффин, Крис Кэттэн, Дениз Ричардс, Онжаню Эллис, Дэйв Шаппелл, Чи МакБрайд, Нил Патрик Харрис, Гари Энтони Уильямс, Билли Ди Уильямс, Джек Ноузуорти-Описание: Он — суперагент, живущий стилем Диско. Он живет и борется со злом по своим правилам — что-то заимствовав из фильмов про Брюса Ли, что-то из 60х годов… Теперь только он может справиться с очередными суперзлодеями, разработавшими новое вещество, способное превратить население земли в тупоголовых зомби.
Этому должны помешать супергерои из организации под названием Б. Р. А. Т. С. Т. В. О. и, в частности, их «Тайный Брат»…-
-
Тип релиза
: WEB-DL 720p
Контейнер: MKV
Видео: AVC, 1280x692, 3896 Kbps, 23.976 fps
Аудио 1: AC3, 48000 Hz, 192 Kbps, 2.0 channels - MVO
Аудио 2: AC3, 48000 Hz, 192 Kbps, 2.0 channels - DVO
Аудио 3: AC3, 48000 Hz, 384 Kbps, 5.1 channels - ENG
-

Скриншоты


Резервные скриншоты



-

MediaInfo

Format : Matroska
Format version : Version 4 / Version 2
File size : 2.86 GiB
Duration : 1h 26mn
Overall bit rate : 4 759 Kbps
Movie name : Тайный брат / Undercover Brother (2002) Web-DL 720p by RG Torrents.ru
Encoded date : UTC 2013-10-27 20:54:25
Writing application : mkvmerge v6.5.0 ('Isn't she lovely') built on Oct 20 2013 12:50:05
Writing library : libebml v1.3.0 + libmatroska v1.4.1
Attachment : Yes
Video
ID : 1
Format : AVC
Format/Info : Advanced Video Codec
Format profile : High@L3.1
Format settings, CABAC : No
Format settings, ReFrames : 2 frames
Codec ID : V_MPEG4/ISO/AVC
Duration : 1h 26mn
Bit rate : 3 896 Kbps
Width : 1 280 pixels
Height : 692 pixels
Display aspect ratio : 1.850
Frame rate : 23.976 fps
Color space : YUV
Chroma subsampling : 4:2:0
Bit depth : 8 bits
Scan type : Progressive
Bits/(Pixel*Frame) : 0.183
Stream size : 2.34 GiB (82%)
Language : English
Default : Yes
Forced : No
Color primaries : BT.709-5, BT.1361, IEC 61966-2-4, SMPTE RP177
Transfer characteristics : BT.709-5, BT.1361
Matrix coefficients : BT.709-5, BT.1361, IEC 61966-2-4 709, SMPTE RP177
Audio #1
ID : 2
Format : AC-3
Format/Info : Audio Coding 3
Mode extension : CM (complete main)
Codec ID : A_AC3
Duration : 1h 26mn
Bit rate mode : Constant
Bit rate : 192 Kbps
Channel(s) : 2 channels
Channel positions : Front: L R
Sampling rate : 48.0 KHz
Bit depth : 16 bits
Compression mode : Lossy
Stream size : 118 MiB (4%)
Title : MVO
Language : Russian
Default : Yes
Forced : No
Audio #2
ID : 3
Format : AC-3
Format/Info : Audio Coding 3
Mode extension : CM (complete main)
Codec ID : A_AC3
Duration : 1h 26mn
Bit rate mode : Constant
Bit rate : 192 Kbps
Channel(s) : 2 channels
Channel positions : Front: L R
Sampling rate : 48.0 KHz
Bit depth : 16 bits
Compression mode : Lossy
Stream size : 118 MiB (4%)
Title : DVO
Language : Russian
Default : No
Forced : No
Audio #3
ID : 4
Format : AC-3
Format/Info : Audio Coding 3
Mode extension : CM (complete main)
Codec ID : A_AC3
Duration : 1h 26mn
Bit rate mode : Constant
Bit rate : 384 Kbps
Channel(s) : 6 channels
Channel positions : Front: L C R, Side: L R, LFE
Sampling rate : 48.0 KHz
Bit depth : 16 bits
Compression mode : Lossy
Stream size : 237 MiB (8%)
Title : ENG
Language : English
Default : No
Forced : No
Menu
00:00:00.000 : en:A New Hero (Main Titles)
00:07:10.000 : en:The Boutwell Situation
00:09:32.000 : en:"Get Me Undercover Brother!"
00:15:05.000 : en:Welcome to the B.R.O.T.H.E.R.H.O.O.D.
00:22:47.000 : en:A Few Modifications
00:24:51.000 : en:Operation Sandtrap
00:28:08.000 : en:The Big Chase
00:29:49.000 : en:Vigorous Training
00:33:33.000 : en:Code Name: Token
00:36:54.000 : en:Black Man's Kryptonite
00:42:32.000 : en:Somebody's Selling Out
00:46:52.000 : en:Sistah Girl vs. White She Devil
00:53:59.000 : en:Too Much Man
00:55:06.000 : en:Going Global
01:00:06.000 : en:Operation Brand New Bag
01:03:33.000 : en:The Big Payback
01:08:26.000 : en:Takin' It to the Man
01:12:18.000 : en:Showdown with Mr. Feather
01:16:29.000 : en:The Baddest Brother
01:19:16.000 : en:End Titles
Скачать

Скачать торрент!

Как скачивать? · Что такое торрент? · Рейтинг и ограничения

Сайт не распространяет и не хранит электронные версии произведений, а лишь предоставляет доступ к создаваемому пользователями каталогу ссылок на торрент-файлы, которые содержат только списки хеш-сумм

[Профиль] [ЛС]
Показать сообщения:    
Ответить на тему

Текущее время: Сегодня 00:09

Часовой пояс: GMT + 4



Вы не можете начинать темы
Вы не можете отвечать на сообщения
Вы не можете редактировать свои сообщения
Вы не можете удалять свои сообщения
Вы не можете голосовать в опросах
Вы не можете прикреплять файлы к сообщениям
Вы не можете скачивать файлы