Новая земля / Nova zembla (Рейну Урлеманс / Reinout Oerlemans) [2011, Нидерланды, История, BDRemux 1080p] DVO (НТВ+) + DVO + VO + original (Dut)+ Subs (Dut, Eng)

Ответить на тему
 
Автор Сообщение

user ®

Стаж: 7 лет 7 месяцев

Сообщений: 20008

Пост Пост: #1 от 28-Окт-2013 23:00

[Цитировать]

Новая земля / Nova zembla

-
-Страна: Нидерланды
Студия: Eyeworks Film & TV Drama, Investment Fund Nova Zembla, Inspire Pictures
Жанр: История
Год выпуска: 2011
Продолжительность: 01:49:07--Перевод 1: Профессиональный (многоголосый закадровый) НТВ+
Перевод 2: Любительский (двухголосый закадровый) Чип и Дейл
Перевод 3: Одноголосый закадровый
Cубтитры: голландские, английские
Оригинальная аудиодорожка: голландский--Режиссер: Рейну Урлеманс / Reinout Oerlemans
В ролях: Даутцен Крёз, Дерек де Линт, Ян Деклер, Сэмми Шилт, Виктор Рейнир, Тюн Куилбур, Бас Кейзер, Мэдс Уиттерманс, Иуда Гослинга--Описание: В 1594-1597 годах Баренц совершил три экспедиции в Арктику для поиска Северо-Восточного прохода в Тихий океан, открыв и описав берега Новой Земли. Во время последнего плавания корабль Баренца затёрло во льдах, и команде пришлось остаться на зимовку в условиях полярной ночи на побережье архипелага. Многие члены команды, в их числе сам Баренц, не выдержали лишений арктической зимы и погибли. Об этом путешествии повествует дневник одного из членов команды — Херрита де Фейра. Дневники де Фейра сегодня воспринимаются как источник научного материала, а голландские дети изучают историю мореплавания Баренца по гравюрам из дневника моряка.--imdb | kinopoisk | Сэмпл--Тип релиза: BDRemux 1080p [Nova.Zembla.2011.2D&3D.1080p.Blu-ray.AVC.DTS-HD.MA.5.1]
Контейнер: MKV
Видео: MPEG-4 AVC / 13518 kbps / 1920x1080 / 23,976 fps / 16:9 / High Profile 4.1
Аудио 1: AC3 / 2.0 / 48 kHz / 192 kbps / 16 bits |DVO, НТВ+|
Аудио 2: AC3 / 2.0 / 48 kHz / 192 kbps / 16 bits |DVO|
Аудио 3: AC3 / 5.1 / 48 kHz / 448 kbps / 16 bits |VO|
Аудио 4: DTS-HD Master Audio / 5.1 / 48 kHz / 2117 kbps / 16 bits (DTS Core: 5.1 / 48 kHz / 1509 kbps / 16 bits) |original|
Формат субтитров: softsub [SRT]

MediaInfo

ОбщееУникальный идентификатор : 191528493709928240319102391987466227002 (0x90170BCEC731265CA701FC1A0C614D3A)Полное имя : G:\HD\Новая земля.2011.Blu-Ray.Remux.(1080p).mkvФормат : MatroskaВерсия формата : Version 2Размер файла : 12,6 ГбайтПродолжительность : 1 ч. 49 м.Режим общего битрейта : ПеременныйОбщий поток : 16,5 Мбит/секДата кодирования : UTC 2013-10-28 15:26:29Программа кодирования : mkvmerge v5.8.0 ('No Sleep / Pillow') built on Sep 2 2012 15:37:04Библиотека кодирования : libebml v1.2.3 + libmatroska v1.3.0Attachment : Yes
ВидеоИдентификатор : 1Формат : AVCФормат/Информация : Advanced Video CodecПрофиль формата : High@L4.1Параметр CABAC формата : ДаПараметр ReFrames формата : 4 кадраИдентификатор кодека : V_MPEG4/ISO/AVCПродолжительность : 1 ч. 49 м.Вид битрейта : ПеременныйМаксимальный битрейт : 30,0 Мбит/секШирина : 1920 пикселейВысота : 1080 пикселейСоотношение сторон : 16:9Режим частоты кадров : ПостоянныйЧастота кадров : 23,976 кадра/секСтандарт вещания : NTSCЦветовое пространство : YUVСубдискретизация насыщенности : 4:2:0Битовая глубина : 8 битТип развёртки : ПрогрессивнаяЯзык : DutchDefault : ДаForced : НетОсновные цвета : BT.709Характеристики трансфера : BT.709Коэффициенты матрицы : BT.709
Аудио #1Идентификатор : 2Формат : AC-3Формат/Информация : Audio Coding 3Расширение режима : CM (complete main)Параметр Endianness формата : BigИдентификатор кодека : A_AC3Продолжительность : 1 ч. 49 м.Вид битрейта : ПостоянныйБитрейт : 192 Кбит/секКаналы : 2 каналаРасположение каналов : Front: L RЧастота : 48,0 КГцБитовая глубина : 16 битМетод сжатия : С потерямиРазмер потока : 150 Мбайт (1%)Заголовок : DVO, НТВ+Язык : RussianDefault : ДаForced : Нет
Аудио #2Идентификатор : 3Формат : AC-3Формат/Информация : Audio Coding 3Расширение режима : CM (complete main)Параметр Endianness формата : BigИдентификатор кодека : A_AC3Продолжительность : 1 ч. 49 м.Вид битрейта : ПостоянныйБитрейт : 192 Кбит/секКаналы : 2 каналаРасположение каналов : Front: L RЧастота : 48,0 КГцБитовая глубина : 16 битМетод сжатия : С потерямиРазмер потока : 150 Мбайт (1%)Заголовок : Чип и ДейлЯзык : RussianDefault : НетForced : Нет
Аудио #3Идентификатор : 4Формат : AC-3Формат/Информация : Audio Coding 3Расширение режима : CM (complete main)Параметр Endianness формата : BigИдентификатор кодека : A_AC3Продолжительность : 1 ч. 49 м.Вид битрейта : ПостоянныйБитрейт : 448 Кбит/секКаналы : 6 каналовРасположение каналов : Front: L C R, Side: L R, LFEЧастота : 48,0 КГцБитовая глубина : 16 битМетод сжатия : С потерямиРазмер потока : 350 Мбайт (3%)Заголовок : VOЯзык : RussianDefault : НетForced : Нет
Аудио #4Идентификатор : 5Формат : DTSФормат/Информация : Digital Theater SystemsПрофиль формата : MA / CoreРежим : 16Параметр Endianness формата : BigИдентификатор кодека : A_DTSПродолжительность : 1 ч. 49 м.Вид битрейта : ПеременныйБитрейт : Неизвестно / 1509 Кбит/секКаналы : 6 каналовРасположение каналов : Front: L C R, Side: L R, LFEЧастота : 48,0 КГцБитовая глубина : 16 битМетод сжатия : Без потерь / LossyЯзык : DutchDefault : НетForced : Нет
Текст #1Идентификатор : 6Формат : UTF-8Идентификатор кодека : S_TEXT/UTF8Идентификатор кодека/Информация : UTF-8 Plain TextЯзык : EnglishDefault : НетForced : Нет
Текст #2Идентификатор : 7Формат : UTF-8Идентификатор кодека : S_TEXT/UTF8Идентификатор кодека/Информация : UTF-8 Plain TextЯзык : DutchDefault : НетForced : Нет
Меню00:00:00.000 : en:00:00:00.00000:11:33.359 : en:00:11:33.35900:23:33.537 : en:00:23:33.53700:40:27.550 : en:00:40:27.55000:51:30.504 : en:00:51:30.50401:04:01.671 : en:01:04:01.67101:13:14.807 : en:01:13:14.80701:30:20.915 : en:01:30:20.91501:43:57.273 : en:01:43:57.273

Скриншоты


Торент-файл перезалит 28.10.2013. Добавлен перевод НТВ+
Скачать

Скачать торрент!

Как скачивать? · Что такое торрент? · Рейтинг и ограничения

Сайт не распространяет и не хранит электронные версии произведений, а лишь предоставляет доступ к создаваемому пользователями каталогу ссылок на торрент-файлы, которые содержат только списки хеш-сумм

[Профиль] [ЛС]
Показать сообщения:    
Ответить на тему

Текущее время: Сегодня 23:40

Часовой пояс: GMT + 4



Вы не можете начинать темы
Вы не можете отвечать на сообщения
Вы не можете редактировать свои сообщения
Вы не можете удалять свои сообщения
Вы не можете голосовать в опросах
Вы не можете прикреплять файлы к сообщениям
Вы не можете скачивать файлы