Брат (Алексей Балабанов) [1997, Криминальная драма, боевик, SATRip-AVC]

Ответить на тему
 
Автор Сообщение

user ®

Стаж: 7 лет 7 месяцев

Сообщений: 20008

Пост Пост: #1 от 28-Окт-2013 23:00

[Цитировать]

Брат
Жанр: Криминальная драма, боевик
Год выпуска: 1997
Продолжительность: 01:34:28
Режиссёр: Алексей Балабанов
В ролях: Сергей Бодров (Данила Багров) , Виктор Сухоруков (Виктор Багров) , Светлана Письмиченко (Света (водитель трамвая)) , Мария Жукова (Кэт) , Юрий Кузнецов (Гофман-немец) , Ирина Ракшина (Зинка) , Сергей Мурзин (Круглый) , Анатолий Журавлёв (нервный бандит) , Андрей Федорцов (Стёпа (режиссер)) , Вячеслав Бутусов (камео) , Игорь Шибанов (милиционер) , Сергей Дебижев (режиссёр клипа) , Алексей Севастьянов (бандит, подручный Круглого) , Ринат Ибрагимов (бандит по кличке «Шиша») , Владимир Ермилов (Павел Евграфович, муж Светы)
Описание: Демобилизированный из армии Данила Багров возвращается в родной город. Скучная, однообразная жизнь провинции не может устроить крепкого русского парня, и он решает поехать в Питер, испытать себя. Тем более, что там, по слухам, уже давно процветает его старший брат. Но новая русская жизнь северной столицы оказывается слишком неожиданной, а родной брат Данилы зарабатывает на жизнь заказными убийствами. Даниле предстоит многое узнать... и со многими разобраться...
Доп. информация: SATRip отличается более реалистичной цветовой гаммой чем на любых имеющихся носителях.
Сэмпл: http://multi-up.com/880998
Качество видео: SATRip
Формат видео: MKV
Видео: AVC x264, 720x424 (1.70:1), 25 fps, 1965 kbps avg, 0.26 bit/pixel
Аудио: AC3, 48 kHz, 2 ch, 224 kbps

MediaInfo

Формат : Matroska
Версия формата : Version 2
Размер файла : 1,44 Гбайт
Продолжительность : 1 ч. 34 м.
Общий поток : 2189 Кбит/сек
Дата кодирования : UTC 2013-07-20 21:25:28
Программа кодирования : mkvmerge v5.8.0 ('No Sleep / Pillow') built on Sep 2 2012 15:37:04
Библиотека кодирования : libebml v1.2.3 + libmatroska v1.3.0
Видео
Идентификатор : 1
Формат : AVC
Формат/Информация : Advanced Video Codec
Профиль формата : Main@L4.1
Параметр CABAC формата : Да
Параметр ReFrames формата : 8 кадров
Идентификатор кодека : V_MPEG4/ISO/AVC
Продолжительность : 1 ч. 34 м.
Битрейт : 1965 Кбит/сек
Ширина : 720 пикселей
Высота : 424 пикселя
Соотношение сторон : 1,698
Режим частоты кадров : Постоянный
Частота кадров : 25,000 кадров/сек
Цветовое пространство : YUV
Субдискретизация насыщенности : 4:2:0
Битовая глубина : 8 бит
Тип развёртки : Прогрессивная
Бит/(Пиксели*Кадры) : 0.257
Размер потока : 1,27 Гбайт (88%)
Библиотека кодирования : x264 core 125 r2208 d9d2288
Настройки программы : cabac=1 / ref=8 / deblock=1:-1:-1 / analyse=0x1:0x131 / me=umh / subme=9 / psy=1 / psy_rd=1.00:0.10 / mixed_ref=1 / me_range=16 / chroma_me=1 / trellis=2 / 8x8dct=0 / cqm=0 / deadzone=21,11 / fast_pskip=1 / chroma_qp_offset=-3 / threads=3 / lookahead_threads=1 / sliced_threads=0 / nr=0 / decimate=1 / interlaced=0 / bluray_compat=0 / constrained_intra=0 / bframes=3 / b_pyramid=2 / b_adapt=2 / b_bias=0 / direct=3 / weightb=1 / open_gop=0 / weightp=2 / keyint=250 / keyint_min=25 / scenecut=40 / intra_refresh=0 / rc_lookahead=60 / rc=abr / mbtree=1 / bitrate=1965 / ratetol=1.0 / qcomp=0.60 / qpmin=0 / qpmax=69 / qpstep=4 / ip_ratio=1.40 / aq=1:1.00
Default : Да
Forced : Нет
Аудио
Идентификатор : 2
Формат : AC-3
Формат/Информация : Audio Coding 3
Расширение режима : CM (complete main)
Параметр Endianness формата : Big
Идентификатор кодека : A_AC3
Продолжительность : 1 ч. 34 м.
Вид битрейта : Постоянный
Битрейт : 224 Кбит/сек
Каналы : 2 канала
Расположение каналов : Front: L R
Частота : 48,0 КГц
Битовая глубина : 16 бит
Метод сжатия : С потерями
Размер потока : 151 Мбайт (10%)
Язык : Russian
Default : Да
Forced : Нет

Скриншоты

Скачать

Скачать торрент!

Как скачивать? · Что такое торрент? · Рейтинг и ограничения

Сайт не распространяет и не хранит электронные версии произведений, а лишь предоставляет доступ к создаваемому пользователями каталогу ссылок на торрент-файлы, которые содержат только списки хеш-сумм

[Профиль] [ЛС]
Показать сообщения:    
Ответить на тему

Текущее время: Сегодня 20:35

Часовой пояс: GMT + 4



Вы не можете начинать темы
Вы не можете отвечать на сообщения
Вы не можете редактировать свои сообщения
Вы не можете удалять свои сообщения
Вы не можете голосовать в опросах
Вы не можете прикреплять файлы к сообщениям
Вы не можете скачивать файлы