Интимные места (Наталья Меркулова, Алексей Чупов) [2013, драма, мелодрама, DVDRip-AVC]

Ответить на тему
 
Автор Сообщение

user ®

Стаж: 7 лет 7 месяцев

Сообщений: 20008

Пост Пост: #1 от 28-Окт-2013 23:00

[Цитировать]

Интимные места
Жанр: драма, мелодрама
Год выпуска: 2013
Продолжительность: 01:16:13
Режиссёр: Наталья Меркулова, Алексей Чупов
В ролях: Юрий Колокольников, Олеся Судзиловская, Юлия Ауг, Никита Тарасов, Ксения Каталымова, Алексей Чупов, Екатерина Щеглова, Тимур Бадалбейли, Динара Янковская, Павел Артемьев
Описание: История о современных москвичах среднего класса и личных тайнах, которые они прячут за своим достатком и успехом...
Кинотавр, 2013 год
Победитель (4):
Лучший дебют (Наталья Меркулова)
Лучший дебют (Алексей Чупов)
Лучшая женская роль (Юлия Ауг)
Диплом гильдии киноведов и кинокритиков
Номинации (1):
Главный приз
Карловы Вары, 2013 год
Номинации (1):
Главный приз программы «К Востоку от Запада»

Сэмпл: http://multi-up.com/917833
Качество видео: DVDRip-AVC
Формат видео: MKV
Видео: 720x432@1024x432 (2.35:1), 25.000 fps, H264 ~2285 kbps avg, 0.294 bit/pixel
Аудио: 48 kHz, AC3, 6 ch, 448.00 kbps

MediaInfo

Общее
Уникальный идентификатор : 254135235868640673449772971604395209925 (0xBF30AA83744A5CCAAD54C69EE674B4C5)
Полное имя : D:\Intimnye.mesta.2013.DVDRip-AVC.mkv
Формат : Matroska
Версия формата : Version 2
Размер файла : 1,46 Гбайт
Продолжительность : 1 ч. 16 м.
Общий поток : 2735 Кбит/сек
Дата кодирования : UTC 2013-10-28 14:38:31
Программа кодирования : mkvmerge v6.3.0 ('You can't stop me!') built on Jul 19 2013 16:27:38
Библиотека кодирования : libebml v1.3.0 + libmatroska v1.4.1
Видео
Идентификатор : 1
Формат : AVC
Формат/Информация : Advanced Video Codec
Профиль формата : High@L4.1
Параметр CABAC формата : Да
Параметр ReFrames формата : 11 кадров
Идентификатор кодека : V_MPEG4/ISO/AVC
Продолжительность : 1 ч. 16 м.
Битрейт : 2285 Кбит/сек
Ширина : 720 пикселей
Высота : 432 пикселя
Соотношение сторон : 2,40:1
Режим частоты кадров : Постоянный
Частота кадров : 25,000 кадров/сек
Цветовое пространство : YUV
Субдискретизация насыщенности : 4:2:0
Битовая глубина : 8 бит
Тип развёртки : Прогрессивная
Бит/(Пиксели*Кадры) : 0.294
Размер потока : 1,19 Гбайт (82%)
Библиотека кодирования : x264 core 138 r2356 a1d3d17
Настройки программы : cabac=1 / ref=11 / deblock=1:-2:-1 / analyse=0x3:0x113 / me=umh / subme=9 / psy=1 / psy_rd=1.00:0.20 / mixed_ref=1 / me_range=32 / chroma_me=1 / trellis=1 / 8x8dct=1 / cqm=0 / deadzone=21,11 / fast_pskip=0 / chroma_qp_offset=-3 / threads=9 / lookahead_threads=1 / sliced_threads=0 / nr=0 / decimate=0 / interlaced=0 / bluray_compat=0 / constrained_intra=0 / bframes=8 / b_pyramid=2 / b_adapt=2 / b_bias=0 / direct=3 / weightb=1 / open_gop=0 / weightp=2 / keyint=250 / keyint_min=25 / scenecut=40 / intra_refresh=0 / rc_lookahead=60 / rc=2pass / mbtree=1 / bitrate=2285 / ratetol=1.0 / qcomp=0.60 / qpmin=0 / qpmax=69 / qpstep=4 / cplxblur=20.0 / qblur=0.5 / ip_ratio=1.40 / aq=1:1.00
Default : Да
Forced : Нет
Аудио
Идентификатор : 2
Формат : AC-3
Формат/Информация : Audio Coding 3
Расширение режима : CM (complete main)
Параметр Endianness формата : Big
Идентификатор кодека : A_AC3
Продолжительность : 1 ч. 16 м.
Вид битрейта : Постоянный
Битрейт : 448 Кбит/сек
Каналы : 6 каналов
Расположение каналов : Front: L C R, Side: L R, LFE
Частота : 48,0 КГц
Битовая глубина : 16 бит
Метод сжатия : С потерями
Размер потока : 244 Мбайт (16%)
Язык : Russian
Default : Да
Forced : Нет

Скриншот c названием фильма

Скриншоты

Скачать

Скачать торрент!

Как скачивать? · Что такое торрент? · Рейтинг и ограничения

Сайт не распространяет и не хранит электронные версии произведений, а лишь предоставляет доступ к создаваемому пользователями каталогу ссылок на торрент-файлы, которые содержат только списки хеш-сумм

[Профиль] [ЛС]
Показать сообщения:    
Ответить на тему

Текущее время: Сегодня 16:32

Часовой пояс: GMT + 4



Вы не можете начинать темы
Вы не можете отвечать на сообщения
Вы не можете редактировать свои сообщения
Вы не можете удалять свои сообщения
Вы не можете голосовать в опросах
Вы не можете прикреплять файлы к сообщениям
Вы не можете скачивать файлы