Короли Лондона / Lost in Italy / Lords of London (Антонио Симончини / Antonio Simoncini) [2013, Великобритания, триллер, детектив, SATRip] MVO

Ответить на тему
 
Автор Сообщение

user ®

Стаж: 7 лет 7 месяцев

Сообщений: 20008

Пост Пост: #1 от 28-Окт-2013 23:00

[Цитировать]

Короли Лондона / Lost in Italy / Lords of London
Страна: Великобритания
Жанр: триллер, детектив
Год выпуска: 2013
Продолжительность: 01:32:11
Перевод: Профессиональный (многоголосый закадровый)
Cубтитры: нет
Режиссер: Антонио Симончини / Antonio Simoncini
В ролях: Глен Мерфи, Рэй Уинстон, Джованни Капальбо, Серена Иансити, Кристофер Хатрэлл, Кассиус Теренс Мерфи, Глин Гримстед, Хелен Лэтэм, Джо Иган, Марк Адамс
Описание: Тони — сын известного гангстера, который с малых лет привык промышлять тем же, что и его отец. Однажды он просыпается в заброшенном сельском домике, его одежда в крови и сам он понятия не имеет, как туда попал и, что случилось до этого. Кажется, эта деревушка затерялась во времени, поблизости нет ни одного телефона. Тони встречается лишь один человек по имени Франческо. Тот рассказывает ему свою историю и просит помочь его семье. Что-то в его истории находит отклик в сердце Тони. Перед ним впервые встает выбор, помочь незнакомому человеку или решать собственные проблемы...
Сэмпл: http://multi-up.com/917756
Качество видео: SATRip
Формат видео: AVI
Видео: 720x304 (2.37:1), 25 fps, XviD build 50 ~1920 kbps avg, 0.35 bit/pixel
Аудио: 48 kHz, AC3 Dolby Digital, 2/0 (L,R) ch, ~192 kbps

MediaInfo

Общее
Полное имя : D:\Koroli.Londona_2013.SATRip.avi
Формат : AVI
Формат/Информация : Audio Video Interleave
Размер файла : 1,37 Гбайт
Продолжительность : 1 ч. 32 м.
Общий поток : 2122 Кбит/сек
Программа кодирования : VirtualDubMod 1.5.10.3 | www.virtualdub-fr.org || (build 2550/release)
Библиотека кодирования : VirtualDubMod build 2550/release
Видео
Идентификатор : 0
Формат : MPEG-4 Visual
Профиль формата : Advanced Simple@L5
Параметр BVOP формата : 1
Параметр QPel формата : Нет
Параметр GMC формата : Без точки перехода
Параметр матрицы формата : Выборочная
Идентификатор кодека : XVID
Идентификатор кодека/Подсказка : XviD
Продолжительность : 1 ч. 32 м.
Битрейт : 1921 Кбит/сек
Ширина : 720 пикселей
Высота : 304 пикселя
Соотношение сторон : 2,35:1
Частота кадров : 25,000 кадров/сек
Цветовое пространство : YUV
Субдискретизация насыщенности : 4:2:0
Битовая глубина : 8 бит
Тип развёртки : Прогрессивная
Метод сжатия : С потерями
Бит/(Пиксели*Кадры) : 0.351
Размер потока : 1,24 Гбайт (90%)
Библиотека кодирования : XviD 1.2.1 (UTC 2008-12-04)
Аудио
Идентификатор : 1
Формат : AC-3
Формат/Информация : Audio Coding 3
Расширение режима : CM (complete main)
Параметр Endianness формата : Big
Идентификатор кодека : 2000
Продолжительность : 1 ч. 32 м.
Вид битрейта : Постоянный
Битрейт : 192 Кбит/сек
Каналы : 2 канала
Расположение каналов : Front: L R
Частота : 48,0 КГц
Битовая глубина : 16 бит
Метод сжатия : С потерями
Размер потока : 127 Мбайт (9%)
Выравнивание : Разделение по промежуткам
Продолжительность промежутка : 40 мс. (1,00 видеокадр)
Время предзагрузки промежутка : 500 мс.

Скриншот c названием фильма

Скриншоты

Скачать

Скачать торрент!

Как скачивать? · Что такое торрент? · Рейтинг и ограничения

Сайт не распространяет и не хранит электронные версии произведений, а лишь предоставляет доступ к создаваемому пользователями каталогу ссылок на торрент-файлы, которые содержат только списки хеш-сумм

[Профиль] [ЛС]
Показать сообщения:    
Ответить на тему

Текущее время: Сегодня 15:31

Часовой пояс: GMT + 4



Вы не можете начинать темы
Вы не можете отвечать на сообщения
Вы не можете редактировать свои сообщения
Вы не можете удалять свои сообщения
Вы не можете голосовать в опросах
Вы не можете прикреплять файлы к сообщениям
Вы не можете скачивать файлы