Риддик / Riddick (Дэвид Туи / David Neil Twohy) [2013, США, Фантастика, боевик, триллер, WEBRip] Dub [звук с TS] + Original (Eng) + HSubs

Ответить на тему
 
Автор Сообщение

user ®

Стаж: 7 лет 7 месяцев

Сообщений: 20008

Пост Пост: #1 от 28-Окт-2013 23:00

[Цитировать]

Риддик / Riddick Страна: США
Студия: One Race Productions, Radar Pictures Inc.
Жанр: Фантастика, боевик, триллер
Год выпуска: 2013
Продолжительность: 01:54:41
Перевод: Дублированное [звук с TS]
Оригинальная аудиодорожка: английская
Cубтитры: вшитые
Режиссер: Дэвид Туи / David Neil Twohy
В ролях: Вин Дизель, Карл Урбан, Кэти Сакхофф, Антуанетта Никпрелаж, Рауль Трухильо, Букем Вудбайн, Хорди Молья, Ной Дэнби, Нолан Фанк, Дэйв Батиста
Описание: Риддик возвращается, бесчисленные попытки его убийства только будоражат в нём кровь и он преданный своими, и брошенный умирать на пустынной планете, сражается с людьми пришедшими убить его, как и всегда по найму каких то лиц, и хищниками живущими на планете, где он скрывается,борьба за жизнь становится страшнее, сильнее и опаснее, ведь Риддик стал ещё круче себя прежнего. Прибыв на планету и открывшие на него охоту галактические наемники-убийцы, оказываются всего навсего пешками в грандиозном плане отмщения нашего непобедимого героя. С врагами, возникающими на его пути тогда, когда это нужно самому Риддику, он начинает поход во имя мести, чтобы в конечном счете вернуться на родную Фурию и спасти ее от уничтожения. Это ещё не конец,а только начало и он отомстит...
Сэмпл: http://multi-up.com/917786

Качество видео
: WEBRip
Формат видео: AVI
Видео: MPEG-4 Visual at 1992 Кбит/сек, 720 x 400 (1.800) at 23.976 fps
Аудио: Русский, MPEG Audio at 192 Кбит/сек, 2 канала(ов), 48,0 КГц
Аудио: Английский, AC-3 at 384 Кбит/сек, 2 канала(ов), 44,1 КГц
MediaInfo
Format : AVI
Format/Info : Audio Video Interleave
File size : 2.05 GiB
Duration : 1h 53mn
Overall bit rate : 2 582 Kbps
Writing application : VirtualDubMod 1.5.10.2 (build 2540/release)
Writing library : VirtualDubMod build 2540/release
Video
ID : 0
Format : MPEG-4 Visual
Format profile : Advanced Simple@L5
Format settings, BVOP : 2
Format settings, QPel : No
Format settings, GMC : No warppoints
Format settings, Matrix : Default (MPEG)
Codec ID : XVID
Codec ID/Hint : XviD
Duration : 1h 53mn
Bit rate : 1 992 Kbps
Width : 720 pixels
Height : 400 pixels
Display aspect ratio : 16:9
Frame rate : 23.976 fps
Color space : YUV
Chroma subsampling : 4:2:0
Bit depth : 8 bits
Scan type : Progressive
Compression mode : Lossy
Bits/(Pixel*Frame) : 0.288
Stream size : 1.58 GiB (77%)
Writing library : XviD 1.2.1 (UTC 2008-12-04)
Audio #1
ID : 1
Format : MPEG Audio
Format version : Version 1
Format profile : Layer 3
Mode : Joint stereo
Codec ID : 55
Codec ID/Hint : MP3
Duration : 1h 53mn
Bit rate mode : Constant
Bit rate : 192 Kbps
Channel count : 2 channels
Sampling rate : 48.0 KHz
Compression mode : Lossy
Stream size : 156 MiB (7%)
Alignment : Aligned on interleaves
Interleave, duration : 42 ms (1.00 video frame)
Interleave, preload duration : 504 ms
Audio #2
ID : 2
Format : AC-3
Format/Info : Audio Coding 3
Mode extension : CM (complete main)
Format settings, Endianness : Big
Codec ID : 2000
Duration : 1h 53mn
Bit rate mode : Constant
Bit rate : 384 Kbps
Channel count : 2 channels
Channel positions : Front: L R
Sampling rate : 44.1 KHz
Bit depth : 16 bits
Compression mode : Lossy
Stream size : 312 MiB (15%)
Alignment : Split accross interleaves
Interleave, duration : 42 ms (1.00 video frame)
Interleave, preload duration : 500 ms
Скриншот с названием фильма Скриншоты
Скачать

Скачать торрент!

Как скачивать? · Что такое торрент? · Рейтинг и ограничения

Сайт не распространяет и не хранит электронные версии произведений, а лишь предоставляет доступ к создаваемому пользователями каталогу ссылок на торрент-файлы, которые содержат только списки хеш-сумм

[Профиль] [ЛС]
Показать сообщения:    
Ответить на тему

Текущее время: Сегодня 04:17

Часовой пояс: GMT + 4



Вы не можете начинать темы
Вы не можете отвечать на сообщения
Вы не можете редактировать свои сообщения
Вы не можете удалять свои сообщения
Вы не можете голосовать в опросах
Вы не можете прикреплять файлы к сообщениям
Вы не можете скачивать файлы